Поиск

1957 (2001) Thelonious Monk - Monk's Music

1957 (2001) Thelonious Monk - Monk's Music
Стили:
Дата записи диска:
26 июня 1957
Дата издания диска:
1987
Дата переиздания диска:
2001
Издатель (лейбл):
Номер по каталогу:
RCD-242-2
Носитель:
CD
Битрейт аудио:
lossless
Аудиокодек:
FLAC (*.flac)
Тип рипа:
tracks+.cue
Время звучания:
00:48:29
Наличие сканов:
  • да
Релизёр (источник):
voras3
Треклист:

01. Abide with Me (0:55)
02. Well. You Needn't (11:27)
03. Ruby. My Dear (5:28)
04. Off Minor (take 5) (5:11)
05. Epistrophy (10:48)
06. Crepuscule with Nellie (take 6) (4:40)
07. Off Minor (take 4) (5:15)
08. Crepuscule with Nellie (takes 4 and 5) (4:45)

Состав:
  • Art Blakey - Drums
  • John Coltrane - Sax (Tenor)
  • Ray Copeland - Trumpet
  • Gigi Gryce - Sax (Alto)
  • Coleman Hawkins - Sax (Tenor)
  • Jack Higgins - Engineer
  • Orrin Keepnews - Liner Notes, Producer
  • Thelonious Monk - Arranger, Composer, Piano
  • Wilbur Ware - Bass
Лог создания рипа
EAC extraction logfile from 27. August 2007, 21:11 for CD
Thelonious Monk / Monk's Music (K2)
Used drive : PIONEER DVD-RW DVR-112D Adapter: 0 ID: 0
Read mode : Secure with NO C2, accurate stream, disable cache
Read offset correction : 48
Overread into Lead-In and Lead-Out : No
Used output format : C:\Program Files\Exact Audio Copy\flac-1.1.4-win\bin\flac.exe (User Defined Encoder)
128 kBit/s
Additional command line options : -8 -V -T "ARTIST=%a" -T "TITLE=%t" -T "ALBUM=%g" -T "DATE=%y" -T "TRACKNUMBER=%n" -T "GENRE=%m" -T "COMMENT=EAC Flac 1.1.4 -8" %s
Other options :
Fill up missing offset samples with silence : Yes
Delete leading and trailing silent blocks : No
Installed external ASPI interface
Track 1
Filename C:\Program Files\Exact Audio Copy\Thelonious Monk - 1957 - Monk's Music (K2)\01 - Abide with Me.wav
Pre-gap length 0:00:02.00
Peak level 84.3 %
Track quality 100.0 %
Test CRC 712453D0
Copy CRC 712453D0
Copy OK
Track 2
Filename C:\Program Files\Exact Audio Copy\Thelonious Monk - 1957 - Monk's Music (K2)\02 - Well, You Needn't.wav
Pre-gap length 0:00:02.13
Peak level 94.1 %
Track quality 99.9 %
Test CRC 8B002C90
Copy CRC 8B002C90
Copy OK
Track 3
Filename C:\Program Files\Exact Audio Copy\Thelonious Monk - 1957 - Monk's Music (K2)\03 - Ruby, My Dear.wav
Pre-gap length 0:00:02.13
Peak level 94.1 %
Track quality 100.0 %
Test CRC 03921F25
Copy CRC 03921F25
Copy OK
Track 4
Filename C:\Program Files\Exact Audio Copy\Thelonious Monk - 1957 - Monk's Music (K2)\04 - Off Minor (take 5).wav
Pre-gap length 0:00:02.60
Peak level 94.1 %
Track quality 100.0 %
Test CRC 15FE513E
Copy CRC 15FE513E
Copy OK
Track 5
Filename C:\Program Files\Exact Audio Copy\Thelonious Monk - 1957 - Monk's Music (K2)\05 - Epistrophy.wav
Pre-gap length 0:00:03.02
Peak level 94.1 %
Track quality 100.0 %
Test CRC 048FB9AD
Copy CRC 048FB9AD
Copy OK
Track 6
Filename C:\Program Files\Exact Audio Copy\Thelonious Monk - 1957 - Monk's Music (K2)\06 - Crepuscule with Nellie (take 6).wav
Pre-gap length 0:00:02.62
Peak level 91.5 %
Track quality 100.0 %
Test CRC 467B68F3
Copy CRC 467B68F3
Copy OK
Track 7
Filename C:\Program Files\Exact Audio Copy\Thelonious Monk - 1957 - Monk's Music (K2)\07 - Off Minor (take 4).wav
Pre-gap length 0:00:02.73
Peak level 94.1 %
Track quality 100.0 %
Test CRC 864835AF
Copy CRC 864835AF
Copy OK
Track 8
Filename C:\Program Files\Exact Audio Copy\Thelonious Monk - 1957 - Monk's Music (K2)\08 - Crepuscule with Nellie (takes 4 and 5).wav
Pre-gap length 0:00:02.69
Peak level 93.9 %
Track quality 99.9 %
Test CRC F34D9CB7
Copy CRC F34D9CB7
Copy OK
No errors occured
End of status report
Содержание индексной карты (.CUE)
REM GENRE Jazz
REM DATE 1957
REM DISCID 530B5D08
REM COMMENT "ExactAudioCopy v0.95b4"
PERFORMER "Thelonious Monk"
TITLE "Monk's Music (K2)"
FILE "01 - Abide with Me.wav" WAVE TRACK 01 AUDIO TITLE "Abide with Me" PERFORMER "Thelonious Monk" INDEX 01 00:00:00 TRACK 02 AUDIO TITLE "Well, You Needn't" PERFORMER "Thelonious Monk" INDEX 00 00:53:27
FILE "02 - Well, You Needn't.wav" WAVE INDEX 01 00:00:00 TRACK 03 AUDIO TITLE "Ruby, My Dear" PERFORMER "Thelonious Monk" INDEX 00 11:24:65
FILE "03 - Ruby, My Dear.wav" WAVE INDEX 01 00:00:00 TRACK 04 AUDIO TITLE "Off Minor (take 5)" PERFORMER "Thelonious Monk" INDEX 00 05:25:30
FILE "04 - Off Minor (take 5).wav" WAVE INDEX 01 00:00:00 TRACK 05 AUDIO TITLE "Epistrophy" PERFORMER "Thelonious Monk" INDEX 00 05:07:73
FILE "05 - Epistrophy.wav" WAVE INDEX 01 00:00:00 TRACK 06 AUDIO TITLE "Crepuscule with Nellie (take 6)" PERFORMER "Thelonious Monk" INDEX 00 10:45:28
FILE "06 - Crepuscule with Nellie (take 6).wav" WAVE INDEX 01 00:00:00 TRACK 07 AUDIO TITLE "Off Minor (take 4)" PERFORMER "Thelonious Monk" INDEX 00 04:37:20
FILE "07 - Off Minor (take 4).wav" WAVE INDEX 01 00:00:00 TRACK 08 AUDIO TITLE "Crepuscule with Nellie (takes 4 and 5)" PERFORMER "Thelonious Monk" INDEX 00 05:12:23
FILE "08 - Crepuscule with Nellie (takes 4 and 5).wav" WAVE INDEX 01 00:00:00
Приватный:
Нет (DHT включён)
Размер:
177.84 Мб (186,479,845 байт) » файлов: 21
Участники:
0 раздают, 0 качают (0 участников всего)
Внешние участники:
Нет внешних трекеров [ Обновить ]
07:15
124
RSS
Нет комментариев. Ваш будет первым!