Поиск

1957 (1999) Johnny Griffin - A Blowin' Session {Blue Note 7243 4 99009 2 9} (RVG Edition)

1957 (1999) Johnny Griffin - A Blowin' Session {Blue Note 7243 4 99009 2 9} (RVG Edition)
Страна-производитель диска (релиза):
USA
Дата записи диска:
8 апреля 1957
Дата издания диска:
1957
Дата переиздания диска:
1999
Номер по каталогу:
7243 4 99009 2 9
Носитель:
CD
Битрейт аудио:
lossless
Аудиокодек:
FLAC (*.flac)
Тип рипа:
tracks+.cue
Время звучания:
49:20
Наличие сканов:
  • да
Релизёр (источник):
ordo
Лог создания рипа
Exact Audio Copy V0.99 prebeta 5 from 4. May 2009

EAC extraction logfile from 29. November 2009, 0:43

Johnny Griffin / A Blowin' Session (RVG Edition) (1957)

Used drive  : HL-DT-STDVDRAM GH22NS40   Adapter: 2  ID: 0

Read mode               : Secure
Utilize accurate stream : Yes
Defeat audio cache      : Yes
Make use of C2 pointers : No

Read offset correction                      : 667
Overread into Lead-In and Lead-Out          : No
Fill up missing offset samples with silence : Yes
Delete leading and trailing silent blocks   : No
Null samples used in CRC calculations       : Yes
Used interface                              : Native Win32 interface for Win NT & 2000
Gap handling                                : Appended to previous track

Used output format              : User Defined Encoder
Selected bitrate                : 768 kBit/s
Quality                         : High
Add ID3 tag                     : No
Command line compressor         : C:\Program Files (x86)\Exact Audio Copy\FLAC\FLAC.EXE
Additional command line options : -8 -V -T "ARTIST=%a" -T "TITLE=%t" -T "ALBUM=%g" -T "DATE=%y" -T "TRACKNUMBER=%n" -T "GENRE=%m" -T "COMMENT=EAC FLAC -8" %s


TOC of the extracted CD

     Track |   Start  |  Length  | Start sector | End sector 
    ---------------------------------------------------------
        1  |  0:00.00 |  9:41.02 |         0    |    43576   
        2  |  9:41.02 |  8:11.01 |     43577    |    80402   
        3  | 17:52.03 | 10:14.54 |     80403    |   126506   
        4  | 28:06.57 | 10:13.53 |    126507    |   172534   
        5  | 38:20.35 | 11:00.09 |    172535    |   222043   


Track  1

     Filename I:\Jazz Music\RIP\01 - The Way You Look Tonight.wav

     Pre-gap length  0:00:02.00

     Peak level 97.9 %
     Track quality 100.0 %
     Test CRC CCD01478
     Copy CRC CCD01478
     Accurately ripped (confidence 6)  [04AE8BE9]
     Copy OK

Track  2

     Filename I:\Jazz Music\RIP\02 - Ball Bearings.wav

     Pre-gap length  0:00:03.56

     Peak level 97.9 %
     Track quality 100.0 %
     Test CRC 72985003
     Copy CRC 72985003
     Accurately ripped (confidence 6)  [32776BB9]
     Copy OK

Track  3

     Filename I:\Jazz Music\RIP\03 - All the Things You Are.wav

     Pre-gap length  0:00:03.41

     Peak level 97.9 %
     Track quality 100.0 %
     Test CRC 9902815D
     Copy CRC 9902815D
     Accurately ripped (confidence 6)  [F5F62B50]
     Copy OK

Track  4

     Filename I:\Jazz Music\RIP\04 - Smoke Stack.wav

     Pre-gap length  0:00:04.57

     Peak level 97.9 %
     Track quality 100.0 %
     Test CRC 270F6778
     Copy CRC 270F6778
     Accurately ripped (confidence 5)  [070D68DF]
     Copy OK

Track  5

     Filename I:\Jazz Music\RIP\05 - Smoke Stack (alternate take).wav

     Pre-gap length  0:00:04.24

     Peak level 97.9 %
     Track quality 100.0 %
     Test CRC AD441803
     Copy CRC AD441803
     Accurately ripped (confidence 6)  [2C7D11C8]
     Copy OK


All tracks accurately ripped

No errors occurred

End of status report
Содержание индексной карты (.CUE)
REM GENRE Jazz
REM DATE 1957
REM DISCID 3C0B9005
REM COMMENT "ExactAudioCopy v0.99pb5"
PERFORMER "Johnny Griffin"
TITLE "A Blowin' Session (RVG Edition) (1957)"
FILE "01 - The Way You Look Tonight.wav" WAVE
  TRACK 01 AUDIO
    TITLE "The Way You Look Tonight"
    PERFORMER "Johnny Griffin"
    FLAGS DCP
    INDEX 01 00:00:00
  TRACK 02 AUDIO
    TITLE "Ball Bearings"
    PERFORMER "Johnny Griffin"
    FLAGS DCP
    INDEX 00 09:37:35
FILE "02 - Ball Bearings.wav" WAVE
    INDEX 01 00:00:00
  TRACK 03 AUDIO
    TITLE "All the Things You Are"
    PERFORMER "Johnny Griffin"
    FLAGS DCP
    INDEX 00 08:07:45
FILE "03 - All the Things You Are.wav" WAVE
    INDEX 01 00:00:00
  TRACK 04 AUDIO
    TITLE "Smoke Stack"
    PERFORMER "Johnny Griffin"
    FLAGS DCP
    INDEX 00 10:10:11
FILE "04 - Smoke Stack.wav" WAVE
    INDEX 01 00:00:00
  TRACK 05 AUDIO
    TITLE "Smoke Stack (alternate take)"
    PERFORMER "Johnny Griffin"
    FLAGS DCP
    INDEX 00 10:09:35
FILE "05 - Smoke Stack (alternate take).wav" WAVE
    INDEX 01 00:00:00
Приватный:
Нет (DHT включён)
Размер:
331.53 Мб (347,637,864 байт) » файлов: 16
Участники:
0 раздают, 0 качают (0 участников всего)
Внешние участники:
5 раздают, 1 качают (6 участников всего) [ Обновить ]
03:17
164
RSS
Нет комментариев. Ваш будет первым!