Поиск

1957 (1988) Art Blakey - Ritual: The Modern Jazz Messengers

1957 (1988) Art Blakey - Ritual: The Modern Jazz Messengers
Стили:
Дата записи диска:
14 января - 11 февраля 1957
Дата издания диска:
1957
Дата переиздания диска:
1988
Издатель (лейбл):
Номер по каталогу:
B2-46858
Носитель:
CD
Битрейт аудио:
lossless
Аудиокодек:
FLAC (*.flac)
Тип рипа:
tracks
Время звучания:
61:44
Наличие сканов:
  • да
Релизёр (источник):
J23enya
Треклист:

01. Little T. (8:46)
02. Exhibit A (6:44)
03. Scotch Blues (8:31 )
04. Once Upon a Groove (8:36)
05. Sam's Tune (5:52)
06. Touche (6:16)
07. Wake Up! (5:04)
08. Art Blakey's Comments on Ritual - Art Blakey (1:55)
09. Ritual (9:59)
 

Состав:
  • Bill Hardman — trumpet
  • Jackie McLean — alto saxophone
  • Sam Dockery — piano
  • Spanky DeBrest — bass
  • Art Blakey — drums
Лог создания рипа
EAC extraction logfile from 26. March 2006, 21:59 for CD
Art Blakey / Ritual
Used drive : PLEXTOR DVDR PX-740A Adapter: 3 ID: 0
Read mode : Secure with NO C2, accurate stream, disable cache
Combined read/write offset correction : 618
Overread into Lead-In and Lead-Out : Yes
Used output format : Internal WAV Routines
44.100 Hz; 16 Bit; Stereo
Other options :
Fill up missing offset samples with silence : Yes
Delete leading and trailing silent blocks : No
Native Win32 interface for Win NT & 2000
Track 1
Filename D:\Downloads\Ritual wav\01 - Little T.wav
Peak level 96.1 %
Track quality 100.0 %
Test CRC A30E4BA1
Copy CRC A30E4BA1
Copy OK
Track 2
Filename D:\Downloads\Ritual wav\02 - Exhibit A.wav
Peak level 98.2 %
Track quality 100.0 %
Test CRC 94A7E637
Copy CRC 94A7E637
Copy OK
Track 3
Filename D:\Downloads\Ritual wav\03 - Scotch Blues.wav
Peak level 96.4 %
Track quality 100.0 %
Test CRC 24EEBD19
Copy CRC 24EEBD19
Copy OK
Track 4
Filename D:\Downloads\Ritual wav\04 - Once Upon A Groove.wav
Peak level 98.4 %
Track quality 99.9 %
Test CRC 4CAD7FA0
Copy CRC 4CAD7FA0
Copy OK
Track 5
Filename D:\Downloads\Ritual wav\05 - Sam's Tune.wav
Peak level 98.4 %
Track quality 100.0 %
Test CRC D1705967
Copy CRC D1705967
Copy OK
Track 6
Filename D:\Downloads\Ritual wav\06 - Touche.wav
Peak level 79.2 %
Track quality 100.0 %
Test CRC 2C77A4AF
Copy CRC 2C77A4AF
Copy OK
Track 7
Filename D:\Downloads\Ritual wav\07 - Wake Up.wav
Peak level 98.4 %
Track quality 100.0 %
Test CRC DB4588CC
Copy CRC DB4588CC
Copy OK
Track 8
Filename D:\Downloads\Ritual wav\08 - Art Blakey's Comments On Ritual.wav
Peak level 44.0 %
Track quality 100.0 %
Test CRC 37A9FEBF
Copy CRC 37A9FEBF
Copy OK
Track 9
Filename D:\Downloads\Ritual wav\09 - Ritual.wav
Peak level 98.4 %
Track quality 100.0 %
Test CRC 337C8CBB
Copy CRC 337C8CBB
Copy OK
No errors occured
End of status report
Приватный:
Нет (DHT включён)
Размер:
357.51 Мб (374,878,563 байт) » файлов: 24
Участники:
0 раздают, 0 качают (0 участников всего)
Внешние участники:
2 раздают, 1 качают (3 участников всего) [ Обновить ]
17:33
121
RSS
Нет комментариев. Ваш будет первым!