Поиск

1957 (1987) John Coltrane With The Red Garland Trio - Traneing In

1957 (1987) John Coltrane With The Red Garland Trio - Traneing In
Стили:
Страна-производитель диска (релиза):
USA
Дата записи диска:
23 августа 1957
Дата издания диска:
март 1958
Дата переиздания диска:
1987
Номер по каталогу:
0025218618922
Носитель:
CD
Битрейт аудио:
lossless
Аудиокодек:
FLAC (*.flac)
Тип рипа:
tracks+.cue
Время звучания:
37:43
Наличие сканов:
  • да
Релизёр (источник):
olegdobr
Состав:
01. Traneing In 12:30
02. Slow Dance 5:26
03. Bass Blues 7:42
04. You Leave Me Breathless 7:22
05. Soft Lights and Sweet Music 4:40

Recorded In Hackensack, N.J. On August 23, 1957
Recording Engineer: Rudy Van Gelder
Original Released As Prestige LP 7123
Mastered For This Compact Disc By Steve Hoffman
DCC Compact Classics
GZS-1098
Monaural
Лог создания рипа
EAC extraction logfile from 16. April 2006, 0:01 for CD
John Coltrane / Traneing In DCC
Used drive : _NEC DVD_RW ND-3550A Adapter: 1 ID: 0
Read mode : Secure with NO C2, accurate stream, disable cache
Read offset correction : 48
Overread into Lead-In and Lead-Out : No
Used output format : Internal WAV Routines
44.100 Hz; 16 Bit; Stereo
Other options :
Fill up missing offset samples with silence : Yes
Delete leading and trailing silent blocks : No
Native Win32 interface for Win NT & 2000
Track 1
Filename C:\Documents and Settings\Owner\My Documents\My Music\eac to wave\01 - Traneing In.wav
Pre-gap length 0:00:02.42
Peak level 92.0 %
Track quality 100.0 %
Test CRC FD7D7BEB
Copy CRC FD7D7BEB
Copy OK
Track 2
Filename C:\Documents and Settings\Owner\My Documents\My Music\eac to wave\02 - Slow Dance.wav
Pre-gap length 0:00:02.77
Peak level 74.4 %
Track quality 100.0 %
Test CRC 4F80084D
Copy CRC 4F80084D
Copy OK
Track 3
Filename C:\Documents and Settings\Owner\My Documents\My Music\eac to wave\03 - Bass Blues.wav
Pre-gap length 0:00:02.89
Peak level 96.8 %
Track quality 100.0 %
Test CRC D654AEB3
Copy CRC D654AEB3
Copy OK
Track 4
Filename C:\Documents and Settings\Owner\My Documents\My Music\eac to wave\04 - You Leave Me Breathless.wav
Pre-gap length 0:00:02.77
Peak level 69.6 %
Track quality 100.0 %
Test CRC C7FE8BD7
Copy CRC C7FE8BD7
Copy OK
Track 5
Filename C:\Documents and Settings\Owner\My Documents\My Music\eac to wave\05 - Soft Lights And Sweet Music.wav
Pre-gap length 0:00:02.77
Peak level 96.8 %
Track quality 100.0 %
Test CRC EDE016E5
Copy CRC EDE016E5
Copy OK
No errors occured
End of status report
Приватный:
Нет (DHT включён)
Размер:
217.19 Мб (227,744,731 байт) » файлов: 23
Участники:
0 раздают, 0 качают (0 участников всего)
Внешние участники:
5 раздают, 2 качают (7 участников всего) [ Обновить ]
18:59
96
RSS
Нет комментариев. Ваш будет первым!