Поиск

1957-1962 Vince Guaraldi - Moods (2019) {Nagel Heyer} [24-44,1]

1957-1962 Vince Guaraldi - Moods (2019) {Nagel Heyer} [24-44,1]
Дата издания диска:
10 октября 2019
Издатель (лейбл):
Битрейт аудио:
lossless

Треклист:

01 - Moon River 05:20
02 - Diane 03:44
03 - Morning of the Carnival 05:50
04 - Black Orchid 03:26
05 - O Nosso Amor 04:55
06 - Since I Fell for You 04:23
07 - Mambo at the M 04:42
08 - Samba De Orpheus 05:40
09 - Mambo Blues 03:50
10 - Willow Weep for Me 05:16
11 - Cast Your Fate to the Wind 03:08
12 - Like a Mighty Rose 04:31
13 - Générique 04:48
14 - No Moon at All 02:38
15 - A Flower Is a Lovesome Thing 05:40
16 - Guajira at the Blackhawk 05:20
17 - Happiness Is a Thing Called Joe 03:46
18 - Alma-Ville 05:00
19 - Yesterdays 04:02
20 - Softly as in a Morning Sunrise 03:29
21 - Flamingo 03:13
22 - I've Waited so Long 02:10
23 - Autumn Leaves 04:23

Доп. инфо:

Формат записи/Источник записи: [TR24][OF]
Издание: Remastered
Год издания/переиздания диска: 1957-1962/2019
Продолжительность: 01:39:14
Наличие сканов в содержимом раздачи: Нет

Контейнер: FLAC (*.flac)
Тип рипа: tracks
Разрядность: 24/44,1
Количество каналов: 2.0

Источник (релизер): Qobuz

Лог проверки качества
foobar2000 1.4.3 / Dynamic Range Meter 1.1.1
log date: 2020-10-29 20:53:12

--------------------------------------------------------------------------------
Analyzed: Vince Guaraldi / Moods
--------------------------------------------------------------------------------

DR         Peak         RMS     Duration Track
--------------------------------------------------------------------------------
DR11      -1.00 dB   -14.14 dB      5:21 01-Moon River
DR13      -1.00 dB   -16.04 dB      3:45 02-Diane
DR12      -1.00 dB   -16.50 dB      5:50 03-Morning of the Carnival
DR12      -1.00 dB   -15.84 dB      3:27 04-Black Orchid
DR10      -1.00 dB   -14.52 dB      4:56 05-O Nosso Amor
DR11      -1.00 dB   -16.16 dB      4:23 06-Since I Fell for You
DR12      -1.00 dB   -14.80 dB      4:43 07-Mambo at the M
DR11      -1.00 dB   -15.11 dB      5:41 08-Samba De Orpheus
DR12      -1.00 dB   -14.82 dB      3:50 09-Mambo Blues
DR10      -1.00 dB   -14.20 dB      5:17 10-Willow Weep for Me
DR11      -1.00 dB   -14.08 dB      3:08 11-Cast Your Fate to the Wind
DR11      -1.00 dB   -14.83 dB      4:32 12-Like a Mighty Rose
DR10      -1.00 dB   -13.89 dB      4:49 13-Générique
DR12      -1.00 dB   -15.32 dB      2:38 14-No Moon at All
DR11      -1.00 dB   -15.35 dB      5:41 15-A Flower Is a Lovesome Thing
DR11      -1.00 dB   -13.82 dB      5:21 16-Guajira at the Blackhawk
DR11      -1.00 dB   -14.50 dB      3:47 17-Happiness Is a Thing Called Joe
DR12      -1.00 dB   -14.63 dB      5:00 18-Alma-Ville
DR11      -1.00 dB   -15.34 dB      4:02 19-Yesterdays
DR10      -1.00 dB   -13.47 dB      3:30 20-Softly as in a Morning Sunrise
DR10      -1.00 dB   -14.38 dB      3:13 21-Flamingo
DR12      -1.00 dB   -15.21 dB      2:11 22-I've Waited so Long
DR10      -1.00 dB   -14.66 dB      4:24 23-Autumn Leaves
--------------------------------------------------------------------------------

Number of tracks:  23
Official DR value: DR11

Samplerate:        44100 Hz
Channels:          2
Bits per sample:   24
Bitrate:           1266 kbps
Codec:             FLAC
================================================================================
Приватный:
Нет (DHT включён)
Размер:
997.52 Мб (1,045,976,960 байт) » файлов: 28
Участники:
2 раздают, 0 качают (2 участников всего)
Внешние участники:
2 раздают, 1 качают (3 участников всего) [ Обновить ]
No seeders - write personal message to M0p94ok. Any questions - support@pro-jazz.com.
Нет сидеров - пишите в личку M0p94ok. Есть вопросы - support@pro-jazz.com
17:34
178
Нет комментариев. Ваш будет первым!