Поиск

1956 Charles Mingus - Chazz (2019) {RevOla} [24-44,1]

1956 Charles Mingus - Chazz (2019) {RevOla} [24-44,1]
Стили:
Дата записи диска:
23 декабря 1955
Место записи:
Café Bohemia, Greenwich Village, New York City, NY, USA
Дата переиздания диска:
15 апреля 2019
Издатель (лейбл):
Носитель:
WEB
Формат:
PCM
Тип рипа:
tracks+.cue
Контейнер:
APE (*.ape)
Количество каналов:
2.0
Разрядность/ЧД:
24/44,1
Битрейт аудио:
lossless
Время звучания:
00:42:24
Наличие сканов:
web
Наличие водяных знаков:
нет
Страна-производитель диска (релиза):
USA
Релизёр (источник):
M0p94ok

Треклист:

1    Jump Monk    6:56
2    Serenade In Blue    6:04
3    Percussion Discussion    8:44
4    Work Song    6:34
5    Septemberly    7:06
6    All The Things You C-Sharp    7:00

Доп. инфо:

Джазовая мастерская 1955 года находится в превосходной форме, представленной в Caf Bohemia в Нью-Йорке. Макс Роуч (Max Roach) появляется только в «Percussion Discussion» с Мингусом, но забытый Вилли Джонс (Willie Jones) тоже не сутулится. Обычно приключенческий набор мелодий включает два монтажа. («Septemberly» сочетает в себе «September in the Rain» и «Tenderly», в то время как «All the Things You Can C-Sharp» представляет собой смесь «All the Things You Are», «Prelude in C-Sharp» Рахманинова и «Clair de Lune»). Это очень яркое свидание, которое входит в число его лучших работ того периода. Еще один диск, Charles Mingus Quintet Plus Max Roach (Fantasy 86009), относится к той же дате; они были объединены в Prestige P-24010. А коробочный набор полных дебютных записей (Debut 12-CDC-4402-2) включает дополнительный час ранее не издававшегося материала.

Лог проверки качества
foobar2000 1.3.16 / Dynamic Range Meter 1.1.1
log date: 2019-04-17 00:49:47

--------------------------------------------------------------------------------
Analyzed: Charles Mingus / Chazz
--------------------------------------------------------------------------------

DR         Peak         RMS     Duration Track
--------------------------------------------------------------------------------
DR13      -4.43 dB   -19.79 dB      6:57 01-Jump Monk
DR13      -3.74 dB   -19.92 dB      6:04 02-Serenade In Blue
DR15      -5.64 dB   -24.83 dB      8:44 03-Percussion Discussion
DR13      -6.27 dB   -21.91 dB      6:35 04-Work Song
DR12      -7.10 dB   -22.76 dB      7:06 05-Septemberley
DR13      -6.84 dB   -23.34 dB      7:01 06-All the Things You Are In C Sharp
--------------------------------------------------------------------------------

Number of tracks:  6
Official DR value: DR13

Samplerate:        44100 Hz
Channels:          2
Bits per sample:   24
Bitrate:           1244 kbps
Codec:             FLAC
================================================================================
Приватный:
Нет (DHT включён)
Размер:
397.49 Мб (416,803,045 байт) » файлов: 8
Участники:
1 раздают, 2 качают (3 участников всего)
Внешние участники:
--- [ Обновить ]
No seeders - write personal message to M0p94ok. Нет сидеров - пишите в личку M0p94ok.
23:12
187
Нет комментариев. Ваш будет первым!