Поиск

1956 (2005) Jimmy Smith — The Preacher {Membran 223040-205}

1956 (2005) Jimmy Smith — The Preacher {Membran 223040-205}
Страна-производитель диска (релиза):
USA
Дата издания диска:
23 мая 2005
Номер по каталогу:
223040-205
Носитель:
CD
Битрейт аудио:
lossless
Аудиокодек:
FLAC (*.flac)
Тип рипа:
tracks
Время звучания:
60:59
Наличие сканов:
  • да
Релизёр (источник):
JanV
Треклист:

01. The preacher 11:48
02. Get happy 7:19
03. Caravan 10:19
04. Rosetta 10:15
05. It's alright with me 11:53
06. Sweet Georgia Brown 9:23

Состав:
  • Jimmy Smith: organ
  • Thornel Schwartz: guitar
  • Donald Bailey: drums

К сожалению, в буклете никакой дополнительной информации о записях не включено, но судя по названиям запись была сделана 4 августа 1956 в прямом эфире в клубе Club Baby Grand, Wilmington, Dellaware. Эти записи были ранее опубликованы на Blue Note Records.

Track 1, 4, 6 ==> At Club "Baby Grand" Wilmington, Delaware, Vol. 1
Track 2, 3, 5 ==> At Club "Baby Grand" Wilmington, Delaware, Vol. 2

Лог создания рипа
Отчёт EAC об извлечении, выполненном 21. мая 2007, 13:16 для диска:
Jimmy Smith / The Preacher

Дисковод: TSSTcorpCD/DVDW SH-S182D   Adapter: 1  ID: 0
Режим чтения: Достоверный (C2: нет, Точный поток: да, Отключение кэша: да)
Комбинированное смещение чтения/записи: 0
Способность читать области Lead-in и Lead-out : Нет

Выходной формат: Внутренние WAV-операции
                     44.100 Гц; 16 бит; стерео

Другие параметры: 
    Заполнение пропущенных сэмплов тишиной : Да
    Удаление блоков с тишиной в начале и конце : Нет
    Встроенный Win32-интерфейс для Win NT/2000


Трек  1
     Имя файла D:\Music\jazz\S\Jimmy Smith\2005 The Preacher\01 - The Preacher.wav

     Пиковый уровень 99.3 %
     Качество трека 100.0 %
     CRC теста 043A5B1A
     CRC копии 043A5B1A
     Копирование... OK

Трек  2
     Имя файла D:\Music\jazz\S\Jimmy Smith\2005 The Preacher\02 - Get Happy.wav

     Пиковый уровень 100.0 %
     Качество трека 100.0 %
     CRC теста 77E1696A
     CRC копии 77E1696A
     Копирование... OK

Трек  3
     Имя файла D:\Music\jazz\S\Jimmy Smith\2005 The Preacher\03 - Caravan.wav

     Пиковый уровень 100.0 %
     Качество трека 99.9 %
     CRC теста 0710B335
     CRC копии 0710B335
     Копирование... OK

Трек  4
     Имя файла D:\Music\jazz\S\Jimmy Smith\2005 The Preacher\04 - Rosetta.wav

     Пиковый уровень 99.7 %
     Качество трека 100.0 %
     CRC теста 5A32DA19
     CRC копии 5A32DA19
     Копирование... OK

Трек  5
     Имя файла D:\Music\jazz\S\Jimmy Smith\2005 The Preacher\05 - It's Alright With Me.wav

     Пиковый уровень 100.0 %
     Качество трека 100.0 %
     CRC теста 99447F19
     CRC копии 99447F19
     Копирование... OK

Трек  6
     Имя файла D:\Music\jazz\S\Jimmy Smith\2005 The Preacher\06 - Sweet Georia Brown.wav

     Пиковый уровень 99.4 %
     Качество трека 100.0 %
     CRC теста 87AEA897
     CRC копии 87AEA897
     Копирование... OK

Ошибок не произошло


Конец отчёта
Приватный:
Нет (DHT включён)
Размер:
398.23 Мб (417,573,163 байт) » файлов: 13
Участники:
0 раздают, 0 качают (0 участников всего)
Внешние участники:
5 раздают, 2 качают (7 участников всего) [ Обновить ]
23:10
101
RSS
Нет комментариев. Ваш будет первым!