Поиск

1956 (1994) Art Blakey & The Jazz Messengers - Hard Drive

1956 (1994) Art Blakey & The Jazz Messengers - Hard Drive
Стили:
Страна-производитель диска (релиза):
Germany
Дата записи диска:
12-13 декабря 1956
Дата издания диска:
1956
Дата переиздания диска:
20 июня 1994
Номер по каталогу:
BET 6001-2 (BCP 6023)
Носитель:
CD
Битрейт аудио:
lossless
Аудиокодек:
FLAC (*.flac)
Тип рипа:
tracks+.cue
Время звучания:
39:16
Наличие сканов:
  • да
Релизёр (источник):
mironov_ad
Треклист:

01. For Minors Only (Jimmy Heath) 5:47
02. Right Down Front (Johnny Griffin) 4:30
03. Deo-X (Bill Hardman) 5:47
04. Sweet Sakeena (Bill Hardman) 5:04
05. For Miles And Miles (Jimmy Heath) 5:24
06. Krafty (Johnny Griffin) 6:33
07. Late Spring (Mitchell) 5:36

Состав:
  • Art Blakey (drums)
  • Bill Hardman (trumpet)
  • Johhny Griffin (tenor sax)
  • Junior Mance (piano) — Sam Dockery заменяет Junior Mance на Deo-X
  • Spanky DeBrest (bass)
Лог создания рипа
EAC extraction logfile from 7. December 2006, 14:16 for CD
Art Blakey & The Jazz Messengers / Hard Drive
Used drive : _NEC DVD_RW ND-3500AG Adapter: 0 ID: 1
Read mode : Secure with NO C2, accurate stream, disable cache
Read offset correction : 48
Overread into Lead-In and Lead-Out : No
Used output format : Internal WAV Routines
44.100 Hz; 16 Bit; Stereo
Other options :
Fill up missing offset samples with silence : Yes
Delete leading and trailing silent blocks : No
Installed external ASPI interface
Track 1
Filename H:\UPLOAD\Art Blakey & The Jazz Messengers - Hard Drive (1956) [FLAC]\01 - For Minors Only.wav
Pre-gap length 0:00:02.00
Peak level 75.3 %
Track quality 100.0 %
Test CRC 7E523CE2
Copy CRC 7E523CE2
Copy OK
Track 2
Filename H:\UPLOAD\Art Blakey & The Jazz Messengers - Hard Drive (1956) [FLAC]\02 - Right Down Front.wav
Peak level 90.5 %
Track quality 100.0 %
Test CRC C2D00BFE
Copy CRC C2D00BFE
Copy OK
Track 3
Filename H:\UPLOAD\Art Blakey & The Jazz Messengers - Hard Drive (1956) [FLAC]\03 - Deo-X.wav
Peak level 77.1 %
Track quality 100.0 %
Test CRC 92C20E47
Copy CRC 92C20E47
Copy OK
Track 4
Filename H:\UPLOAD\Art Blakey & The Jazz Messengers - Hard Drive (1956) [FLAC]\04 - Sweet Sakeena.wav
Peak level 82.4 %
Track quality 100.0 %
Test CRC 5B82CC45
Copy CRC 5B82CC45
Copy OK
Track 5
Filename H:\UPLOAD\Art Blakey & The Jazz Messengers - Hard Drive (1956) [FLAC]\05 - For Miles And Miles.wav
Peak level 79.1 %
Track quality 99.9 %
Test CRC F4D8FDC8
Copy CRC F4D8FDC8
Copy OK
Track 6
Filename H:\UPLOAD\Art Blakey & The Jazz Messengers - Hard Drive (1956) [FLAC]\06 - Krafty.wav
Peak level 78.6 %
Track quality 100.0 %
Test CRC 35B35B92
Copy CRC 35B35B92
Copy OK
Track 7
Filename H:\UPLOAD\Art Blakey & The Jazz Messengers - Hard Drive (1956) [FLAC]\07 - Late Spring.wav
Peak level 78.8 %
Track quality 100.0 %
Test CRC 185F6FBB
Copy CRC 185F6FBB
Copy OK
No errors occured
End of status report
Приватный:
Нет (DHT включён)
Размер:
201.75 Мб (211,554,931 байт) » файлов: 20
Участники:
0 раздают, 0 качают (0 участников всего)
Внешние участники:
2 раздают, 1 качают (3 участников всего) [ Обновить ]
03:46
105
RSS
Нет комментариев. Ваш будет первым!