Поиск

1956 (1990) Erroll Garner - Concert By The Sea

1956 (1990) Erroll Garner - Concert By The Sea
Страна-производитель диска (релиза):
USA
Дата записи диска:
19 сентября 1955
Дата издания диска:
1956
Дата переиздания диска:
1990
Издатель (лейбл):
Номер по каталогу:
451042 2
Носитель:
CD
Битрейт аудио:
lossless
Аудиокодек:
FLAC (*.flac)
Тип рипа:
tracks+.cue
Время звучания:
43:40
Наличие сканов:
  • да
Релизёр (источник):
snegovik
Треклист:
 
01. I'll Remember April 4:19
02. Teach Me Tonight 3:44
03. Mambo Carmel 3:48
04. Autumn Leaves 6:34
05. It's All Right With Me 3:29
06. Red Top 3:21
07. April in Paris 4:56
08. They Can't Take That Away From Me 4:16
09. How Could You Do a Thing Like That to Me 4:09
10. Where or When 3:16
11. Erroll's Theme 1:48
 
 
Состав:
  • Denzil Best Drums
  • Eddie Calhoun Bass
  • Stanley Dance Liner Notes
  • Erroll Garner Composer, Piano
  • Larry Keyes Engineer
  • George Avakian producer, liner notes
Диск был записан в Carmel, California, USA
Лог создания рипа
<spoiler title="Лог создания рипа">EAC extraction logfile from 27. January 2006, 11:38 for CD
Erroll Garner / Concert By The Sea
Used drive : PIONEER DVD-RW DVR-110D Adapter: 1 ID: 0
Read mode : Secure with NO C2, accurate stream, disable cache
Read offset correction : 48
Overread into Lead-In and Lead-Out : Yes
Used output format : C:\Program Files\FLAC\flac.exe (User Defined Encoder)
128 kBit/s
Additional command line options : -5 -V -T "ARTIST=%a" -T "TITLE=%t" -T "ALBUM=%g" -T "DATE=%y" -T "TRACKNUMBER=%n" -T "GENRE=%m" -T "COMMENT=EAC Flac 1.1.2 -5" %s
Other options :
Fill up missing offset samples with silence : Yes
Delete leading and trailing silent blocks : No
Installed external ASPI interface
Track 1
Filename G:\Audio\Erroll Garner - Concert by the Sea (1955) [FLAC]\01 - I'll Remember April.wav
Pre-gap length 0:00:02.00
Peak level 65.8 %
Track quality 100.0 %
Test CRC DC03669D
Copy CRC DC03669D
Copy OK
Track 2
Filename G:\Audio\Erroll Garner - Concert by the Sea (1955) [FLAC]\02 - Teach Me Tonight.wav
Peak level 76.0 %
Track quality 99.9 %
Test CRC 71B3FFA1
Copy CRC 71B3FFA1
Copy OK
Track 3
Filename G:\Audio\Erroll Garner - Concert by the Sea (1955) [FLAC]\03 - Mambo Carmel.wav
Peak level 67.7 %
Track quality 100.0 %
Test CRC 6DC91395
Copy CRC 6DC91395
Copy OK
Track 4
Filename G:\Audio\Erroll Garner - Concert by the Sea (1955) [FLAC]\04 - Autumn Leaves.wav
Peak level 83.2 %
Track quality 99.9 %
Test CRC BA2121E3
Copy CRC BA2121E3
Copy OK
Track 5
Filename G:\Audio\Erroll Garner - Concert by the Sea (1955) [FLAC]\05 - It's All Right With Me.wav
Peak level 85.1 %
Track quality 100.0 %
Test CRC 5940D9E0
Copy CRC 5940D9E0
Copy OK
Track 6
Filename G:\Audio\Erroll Garner - Concert by the Sea (1955) [FLAC]\06 - Red Top.wav
Peak level 86.9 %
Track quality 100.0 %
Test CRC 75ACD10C
Copy CRC 75ACD10C
Copy OK
Track 7
Filename G:\Audio\Erroll Garner - Concert by the Sea (1955) [FLAC]\07 - April In Paris.wav
Peak level 64.1 %
Track quality 100.0 %
Test CRC 62F7C831
Copy CRC 62F7C831
Copy OK
Track 8
Filename G:\Audio\Erroll Garner - Concert by the Sea (1955) [FLAC]\08 - They Can't Take That Away From Me.wav
Peak level 73.6 %
Track quality 100.0 %
Test CRC F732B3DB
Copy CRC F732B3DB
Copy OK
Track 9
Filename G:\Audio\Erroll Garner - Concert by the Sea (1955) [FLAC]\09 - How Could You Do A Thing Like That To Me.wav
Peak level 61.7 %
Track quality 100.0 %
Test CRC A6DE0971
Copy CRC A6DE0971
Copy OK
Track 10
Filename G:\Audio\Erroll Garner - Concert by the Sea (1955) [FLAC]\10 - Where Or When.wav
Peak level 61.2 %
Track quality 100.0 %
Test CRC 3A73F824
Copy CRC 3A73F824
Copy OK
Track 11
Filename G:\Audio\Erroll Garner - Concert by the Sea (1955) [FLAC]\11 - Erroll's Theme.wav
Peak level 52.7 %
Track quality 100.0 %
Test CRC F5094F79
Copy CRC F5094F79
Copy OK
No errors occured
End of status report</spoiler>
Приватный:
Нет (DHT включён)
Размер:
186.08 Мб (195,122,996 байт) » файлов: 23
Участники:
0 раздают, 0 качают (0 участников всего)
Внешние участники:
3 раздают, 1 качают (4 участников всего) [ Обновить ]
18:19
47
RSS
Нет комментариев. Ваш будет первым!