Поиск

1956-1958 (1995) Lee Morgan - The Complete Blue Note 50s Sessions (4CD)

1956-1958 (1995) Lee Morgan - The Complete Blue Note 50s Sessions (4CD)
Страна-производитель диска (релиза):
USA
Дата записи диска:
4 ноября 1956 - 2 февраля 1958
Дата издания диска:
1995
Издатель (лейбл):
Номер по каталогу:
MD4-162 S24-18433-2
Носитель:
CD
Битрейт аудио:
lossless
Аудиокодек:
FLAC (*.flac)
Тип рипа:
tracks+.cue
Время звучания:
04:16:18
Наличие сканов:
  • да
  • pdf booklet
Релизёр (источник):
J23enya
Треклист:
The Complete Blue Note Lee Morgan Fifties Sessions

01. Gaza Strip 3:54 [1]
02. Reggie of Chester 4:52 [1]
03. Little T. 8:21 [1]
04. Little T. 8:08 [1]
05. Stand By 5:49 [1]
06. Roccus 8:15 [1]
07. The Lady 6:44 [1]
08. Latin Hangover 6:42 [2]
09. Whisper Not 7:18 [2]
10. His Sister 6:30 [2]

[1]
Lee Morgan (tp),
Clarence Sharpe (as),
Horace Silver (p),
Wilbur Ware (b),
Philly Joe Jones (ds),
VGS-Hackensack, NJ, November 4, 1956
[2]
Lee Morgan (tp),
Kenny Rodgers (as),
Hank Mobley (ts),
Horace Silver (p),
Paul Chambers (b),
Charlie Persip (ds),
VGS-Hackensack, NJ, December 2, 1956

EAC extraction logfile from 29. May 2005, 11:52 for CD
Lee Morgan / The Complete Blue Note Lee Morgan Fifties Sessions (Disc 1)
Used drive : PLEXTOR CD-R PX-W4824A Adapter: 1 ID: 0
Read mode : Secure with NO C2, accurate stream, disable cache
Read offset correction : 98
Overread into Lead-In and Lead-Out : Yes
Used output format : C:\Programme\FLAC\flac.exe (User Defined Encoder)
320 kBit/s
Additional command line options : -8 -V -T "artist=%a" -T "title=%t" -T "album=%g" -T "date=%y" -T "tracknumber=%n" -T "genre=%m" -T "comment=Mosaic Records MD4-162" %s
Other options :
Fill up missing offset samples with silence : Yes
Delete leading and trailing silent blocks : No
Installed external ASPI interface
Track 1
Filename C:\Sharing_Geplant\Lee Morgan - The Complete Blue Note 50s Sessions (1995) [FLAC] {Mosaic Ltd. Ed.}\CD1\01 - Gaza Strip.wav
Pre-gap length 0:00:02.00
Peak level 86.9 %
Track quality 100.0 %
Test CRC 49A479CE
Copy CRC 49A479CE
Copy OK
Track 2
Filename C:\Sharing_Geplant\Lee Morgan - The Complete Blue Note 50s Sessions (1995) [FLAC] {Mosaic Ltd. Ed.}\CD1\02 - Reggie of Chester.wav
Pre-gap length 0:00:02.00
Peak level 92.4 %
Track quality 100.0 %
Test CRC DD471DAF
Copy CRC DD471DAF
Copy OK
Track 3
Filename C:\Sharing_Geplant\Lee Morgan - The Complete Blue Note 50s Sessions (1995) [FLAC] {Mosaic Ltd. Ed.}\CD1\03 - Little T.wav
Pre-gap length 0:00:01.56
Peak level 100.0 %
Track quality 100.0 %
Test CRC E7E6AF6B
Copy CRC E7E6AF6B
Copy OK
Track 4
Filename C:\Sharing_Geplant\Lee Morgan - The Complete Blue Note 50s Sessions (1995) [FLAC] {Mosaic Ltd. Ed.}\CD1\04 - Little T (Alternate Take).wav
Pre-gap length 0:00:02.62
Peak level 100.0 %
Track quality 100.0 %
Test CRC 1CB284C5
Copy CRC 1CB284C5
Copy OK
Track 5
Filename C:\Sharing_Geplant\Lee Morgan - The Complete Blue Note 50s Sessions (1995) [FLAC] {Mosaic Ltd. Ed.}\CD1\05 - Stand By.wav
Pre-gap length 0:00:01.29
Peak level 98.9 %
Track quality 100.0 %
Test CRC F8144DDF
Copy CRC F8144DDF
Copy OK
Track 6
Filename C:\Sharing_Geplant\Lee Morgan - The Complete Blue Note 50s Sessions (1995) [FLAC] {Mosaic Ltd. Ed.}\CD1\06 - Roccus.wav
Pre-gap length 0:00:01.16
Peak level 100.0 %
Track quality 100.0 %
Test CRC 35D340D0
Copy CRC 35D340D0
Copy OK
Track 7
Filename C:\Sharing_Geplant\Lee Morgan - The Complete Blue Note 50s Sessions (1995) [FLAC] {Mosaic Ltd. Ed.}\CD1\07 - The Lady.wav
Pre-gap length 0:00:01.60
Peak level 100.0 %
Track quality 99.9 %
Test CRC 7DE45B6D
Copy CRC 7DE45B6D
Copy OK
Track 8
Filename C:\Sharing_Geplant\Lee Morgan - The Complete Blue Note 50s Sessions (1995) [FLAC] {Mosaic Ltd. Ed.}\CD1\08 - Latin Hangover.wav
Pre-gap length 0:00:02.56
Peak level 100.0 %
Track quality 100.0 %
Test CRC 1BFB6BC8
Copy CRC 1BFB6BC8
Copy OK
Track 9
Filename C:\Sharing_Geplant\Lee Morgan - The Complete Blue Note 50s Sessions (1995) [FLAC] {Mosaic Ltd. Ed.}\CD1\09 - Whisper Not.wav
Pre-gap length 0:00:01.93
Peak level 89.9 %
Track quality 100.0 %
Test CRC 062C764E
Copy CRC 062C764E
Copy OK
Track 10
Filename C:\Sharing_Geplant\Lee Morgan - The Complete Blue Note 50s Sessions (1995) [FLAC] {Mosaic Ltd. Ed.}\CD1\10 - His Sister.wav
Pre-gap length 0:00:02.17
Peak level 94.7 %
Track quality 100.0 %
Test CRC 7584B315
Copy CRC 7584B315
Copy OK
No errors occured
End of status report
>
The Complete Blue Note Lee Morgan Fifties Sessions
01. D's Funk 7:41 [1]
02. Slightly Hep 6:25 [1]
03. Where Am I? 5:47 [1]
04. Hasaan39's Dream 8:42 [2]
05. I Remember Clifford 7:06 [2]
06. Mesabi Chant 6:08 [2]
07. Tip Toeing 6:39 [2]
08. Tip Toeing 6:38 [2]
09. Domingo 9:19 [2]

[1]
Lee Morgan (tp),
Kenny Rodgers (as),
Hank Mobley (ts),
Horace Silver (p),
Paul Chambers (b),
Charlie Persip (ds),
VGS-Hackensack, NJ, December 2, 1956
[2]
Lee Morgan (tp),
Gigi Gryce (as/fl-[1]),
Benny Golson (ts),
Wynton Kelly (p),
Paul Chambers (b),
Charlie Persip (ds),
VGS-Hackensack, NJ, March 24, 1957

EAC extraction logfile from 29. May 2005, 21:37 for CD
Lee Morgan / The Complete Blue Note Lee Morgan Fifties Sessions (Disc 2)
Used drive : PLEXTOR CD-R PX-W4824A Adapter: 1 ID: 0
Read mode : Secure with NO C2, accurate stream, disable cache
Read offset correction : 98
Overread into Lead-In and Lead-Out : Yes
Used output format : C:\Programme\FLAC\flac.exe (User Defined Encoder)
320 kBit/s
Additional command line options : -8 -V -T "artist=%a" -T "title=%t" -T "album=%g" -T "date=%y" -T "tracknumber=%n" -T "genre=%m" -T "comment=Mosaic Records MD4-162" %s
Other options :
Fill up missing offset samples with silence : Yes
Delete leading and trailing silent blocks : No
Installed external ASPI interface
Track 1
Filename C:\Sharing_Geplant\Lee Morgan - The Complete Blue Note 50s Sessions (1995) [FLAC] {Mosaic Ltd. Ed.}\CD2\01 - D's Fink.wav
Pre-gap length 0:00:02.00
Peak level 96.8 %
Track quality 100.0 %
Test CRC 7DBE319C
Copy CRC 7DBE319C
Copy OK
Track 2
Filename C:\Sharing_Geplant\Lee Morgan - The Complete Blue Note 50s Sessions (1995) [FLAC] {Mosaic Ltd. Ed.}\CD2\02 - Slightly Hep.wav
Pre-gap length 0:00:02.33
Peak level 100.0 %
Track quality 100.0 %
Test CRC 5A85A505
Copy CRC 5A85A505
Copy OK
Track 3
Filename C:\Sharing_Geplant\Lee Morgan - The Complete Blue Note 50s Sessions (1995) [FLAC] {Mosaic Ltd. Ed.}\CD2\03 - Where Am I .wav
Pre-gap length 0:00:01.82
Peak level 87.3 %
Track quality 100.0 %
Test CRC 51D80C89
Copy CRC 51D80C89
Copy OK
Track 4
Filename C:\Sharing_Geplant\Lee Morgan - The Complete Blue Note 50s Sessions (1995) [FLAC] {Mosaic Ltd. Ed.}\CD2\04 - Hasaan's Dream.wav
Pre-gap length 0:00:02.06
Peak level 100.0 %
Track quality 100.0 %
Test CRC D27DEA6E
Copy CRC D27DEA6E
Copy OK
Track 5
Filename C:\Sharing_Geplant\Lee Morgan - The Complete Blue Note 50s Sessions (1995) [FLAC] {Mosaic Ltd. Ed.}\CD2\05 - I Remember Clifford.wav
Pre-gap length 0:00:02.20
Peak level 96.2 %
Track quality 99.9 %
Test CRC 050448A4
Copy CRC 050448A4
Copy OK
Track 6
Filename C:\Sharing_Geplant\Lee Morgan - The Complete Blue Note 50s Sessions (1995) [FLAC] {Mosaic Ltd. Ed.}\CD2\06 - Mesabi Chant.wav
Pre-gap length 0:00:02.36
Peak level 100.0 %
Track quality 100.0 %
Test CRC F6404F93
Copy CRC F6404F93
Copy OK
Track 7
Filename C:\Sharing_Geplant\Lee Morgan - The Complete Blue Note 50s Sessions (1995) [FLAC] {Mosaic Ltd. Ed.}\CD2\07 - Tip-Toeing (Alternate Take).wav
Pre-gap length 0:00:02.30
Peak level 100.0 %
Track quality 100.0 %
Test CRC 15DF5251
Copy CRC 15DF5251
Copy OK
Track 8
Filename C:\Sharing_Geplant\Lee Morgan - The Complete Blue Note 50s Sessions (1995) [FLAC] {Mosaic Ltd. Ed.}\CD2\08 - Tip-Toeing (Alternate Take).wav
Pre-gap length 0:00:01.96
Peak level 100.0 %
Track quality 100.0 %
Test CRC E1E7CF5A
Copy CRC E1E7CF5A
Copy OK
Track 9
Filename C:\Sharing_Geplant\Lee Morgan - The Complete Blue Note 50s Sessions (1995) [FLAC] {Mosaic Ltd. Ed.}\CD2\09 - Domingo.wav
Pre-gap length 0:00:03.02
Peak level 100.0 %
Track quality 100.0 %
Test CRC AF89D275
Copy CRC AF89D275
Copy OK
No errors occured
End of status report
>
The Complete Blue Note Lee Morgan Fifties Sessions

01. Just by Myself 9:23 [1]< br /> 02. City Lights 5:43 [1]< br /> 03. You're Mine, You 6:00 [1]< br /> 04. Tempo de Waltz 6:22 [1]< br /> 05. Kin Folks 9:42 [1]< br /> 06. Just One of Those Things 7:50 [2]< br /> 07. Just One of Those Things 7:15 [2]
08. Heavy Dipper 7:05 [2]

[1]
Lee Morgan (tp),
Curtis Fuller (tb),
George Coleman (ts/as-(02)),
Ray Bryant (p),
Paul Chambers (b),
Art Taylor (ds),
Benny Golson (arr),
Manhattan Towers, NYC, August 25, 1957
[2]
Lee Morgan (tp),
Pepper Adams (bs),
Bobby Timmons (p),
Paul Chambers (b),
Philly Joe Jones (ds),
VGS-Hackensack, NJ, September 29, 1957

EAC extraction logfile from 29. May 2005, 23:02 for CD
Lee Morgan / The Complete Blue Note Lee Morgan Fifties Sessions (Disc 3)
Used drive : PLEXTOR CD-R PX-W4824A Adapter: 1 ID: 0
Read mode : Secure with NO C2, accurate stream, disable cache
Read offset correction : 98
Overread into Lead-In and Lead-Out : Yes
Used output format : C:\Programme\FLAC\flac.exe (User Defined Encoder)
320 kBit/s
Additional command line options : -8 -V -T "artist=%a" -T "title=%t" -T "album=%g" -T "date=%y" -T "tracknumber=%n" -T "genre=%m" -T "comment=Mosaic Records MD4-162" %s
Other options :
Fill up missing offset samples with silence : Yes
Delete leading and trailing silent blocks : No
Installed external ASPI interface
Track 1
Filename C:\Sharing_Geplant\Lee Morgan - The Complete Blue Note 50s Sessions (1995) [FLAC] {Mosaic Ltd. Ed.}\CD3\01 - Just By Myself.wav
Pre-gap length 0:00:02.00
Peak level 100.0 %
Track quality 100.0 %
Test CRC 57E9F3F5
Copy CRC 57E9F3F5
Copy OK
Track 2
Filename C:\Sharing_Geplant\Lee Morgan - The Complete Blue Note 50s Sessions (1995) [FLAC] {Mosaic Ltd. Ed.}\CD3\02 - City Lights.wav
Pre-gap length 0:00:02.20
Peak level 100.0 %
Track quality 100.0 %
Test CRC 02C4E9F9
Copy CRC 02C4E9F9
Copy OK
Track 3
Filename C:\Sharing_Geplant\Lee Morgan - The Complete Blue Note 50s Sessions (1995) [FLAC] {Mosaic Ltd. Ed.}\CD3\03 - You're Mine You.wav
Pre-gap length 0:00:01.33
Peak level 100.0 %
Track quality 100.0 %
Test CRC 88503932
Copy CRC 88503932
Copy OK
Track 4
Filename C:\Sharing_Geplant\Lee Morgan - The Complete Blue Note 50s Sessions (1995) [FLAC] {Mosaic Ltd. Ed.}\CD3\04 - Temp De Waltz.wav
Pre-gap length 0:00:02.10
Peak level 96.7 %
Track quality 99.9 %
Test CRC 4B83672A
Copy CRC 4B83672A
Copy OK
Track 5
Filename C:\Sharing_Geplant\Lee Morgan - The Complete Blue Note 50s Sessions (1995) [FLAC] {Mosaic Ltd. Ed.}\CD3\05 - Kin Folks.wav
Pre-gap length 0:00:01.33
Peak level 100.0 %
Track quality 100.0 %
Test CRC C11F151E
Copy CRC C11F151E
Copy OK
Track 6
Filename C:\Sharing_Geplant\Lee Morgan - The Complete Blue Note 50s Sessions (1995) [FLAC] {Mosaic Ltd. Ed.}\CD3\06 - Just One Of Those Things (Alternate Take).wav
Pre-gap length 0:00:01.86
Peak level 100.0 %
Track quality 100.0 %
Test CRC D47ECA76
Copy CRC D47ECA76
Copy OK
Track 7
Filename C:\Sharing_Geplant\Lee Morgan - The Complete Blue Note 50s Sessions (1995) [FLAC] {Mosaic Ltd. Ed.}\CD3\07 - Just One Of Those Things.wav
Pre-gap length 0:00:02.00
Peak level 100.0 %
Track quality 100.0 %
Test CRC 70C48C5B
Copy CRC 70C48C5B
Copy OK
Track 8
Filename C:\Sharing_Geplant\Lee Morgan - The Complete Blue Note 50s Sessions (1995) [FLAC] {Mosaic Ltd. Ed.}\CD3\08 - Heavy Dipper.wav
Pre-gap length 0:00:01.77
Peak level 100.0 %
Track quality 100.0 %
Test CRC 06352F62
Copy CRC 06352F62
Copy OK
No errors occured
End of status report
>
The Complete Blue Note Lee Morgan Fifties Sessions

01. A Night in Tunisia 9:22 [1]< br /> 02. Lover Man 6:49 [1]< br /> 03. New-Ma 8:13 [1]< br /> 04. Since I Fell for You 5:34 [2]< br /> 05. Personality 6:11 [2]< br /> 06. All at Once You Love Her 5:26 [2]< br /> 07. Who Do You Love, I Hope? 4:57 [2]< br /> 08. Candy 7:02 [3]< br /> 09. C.T.A. 5:04 [3]
10. All the Way 7:22 [3]

[1]
Lee Morgan (tp),
Pepper Adams (bs),
Bobby Timmons (p),
Paul Chambers (b),
Philly Joe Jones (ds),
VGS-Hackensack, NJ, September 29, 1957
[2]
Lee Morgan (tp),
Sonny Clark (p),
Doug Watkins (b),
Art Taylor (ds),
VGS-Hackensack, NJ, November 18, 1957
[3]
Lee Morgan (tp),
Sonny Clark (p),
Doug Watkins (b),
Art Taylor (ds),
VGS-Hackensack, NJ, February 2, 1958

EAC extraction logfile from 30. May 2005, 7:43 for CD
Lee Morgan / The Complete Blue Note Lee Morgan Fifties Sessions (Disc 4)
Used drive : PLEXTOR CD-R PX-W4824A Adapter: 1 ID: 0
Read mode : Secure with NO C2, accurate stream, disable cache
Read offset correction : 98
Overread into Lead-In and Lead-Out : Yes
Used output format : C:\Programme\FLAC\flac.exe (User Defined Encoder)
320 kBit/s
Additional command line options : -8 -V -T "artist=%a" -T "title=%t" -T "album=%g" -T "date=%y" -T "tracknumber=%n" -T "genre=%m" -T "comment=Mosaic Records MD4-162" %s
Other options :
Fill up missing offset samples with silence : Yes
Delete leading and trailing silent blocks : No
Installed external ASPI interface
Track 1
Filename C:\Sharing_Geplant\Lee Morgan - The Complete Blue Note 50s Sessions (1995) [FLAC] {Mosaic Ltd. Ed.}\CD4\01 - A Night In Tunisia.wav
Pre-gap length 0:00:02.00
Peak level 100.0 %
Track quality 100.0 %
Test CRC 26AC5132
Copy CRC 26AC5132
Copy OK
Track 2
Filename C:\Sharing_Geplant\Lee Morgan - The Complete Blue Note 50s Sessions (1995) [FLAC] {Mosaic Ltd. Ed.}\CD4\02 - Lover Man.wav
Pre-gap length 0:00:00.96
Peak level 100.0 %
Track quality 99.9 %
Test CRC 23CA3EFE
Copy CRC 23CA3EFE
Copy OK
Track 3
Filename C:\Sharing_Geplant\Lee Morgan - The Complete Blue Note 50s Sessions (1995) [FLAC] {Mosaic Ltd. Ed.}\CD4\03 - New-Ma.wav
Pre-gap length 0:00:01.97
Peak level 100.0 %
Track quality 100.0 %
Test CRC 77425F6A
Copy CRC 77425F6A
Copy OK
Track 4
Filename C:\Sharing_Geplant\Lee Morgan - The Complete Blue Note 50s Sessions (1995) [FLAC] {Mosaic Ltd. Ed.}\CD4\04 - Since I Fell For You.wav
Pre-gap length 0:00:02.40
Peak level 86.5 %
Track quality 100.0 %
Test CRC 1BCEFCA0
Copy CRC 1BCEFCA0
Copy OK
Track 5
Filename C:\Sharing_Geplant\Lee Morgan - The Complete Blue Note 50s Sessions (1995) [FLAC] {Mosaic Ltd. Ed.}\CD4\05 - Personality.wav
Pre-gap length 0:00:01.46
Peak level 100.0 %
Track quality 100.0 %
Test CRC C62A483A
Copy CRC C62A483A
Copy OK
Track 6
Filename C:\Sharing_Geplant\Lee Morgan - The Complete Blue Note 50s Sessions (1995) [FLAC] {Mosaic Ltd. Ed.}\CD4\06 - All At Once, You Love Her.wav
Pre-gap length 0:00:02.73
Peak level 100.0 %
Track quality 100.0 %
Test CRC 7D328820
Copy CRC 7D328820
Copy OK
Track 7
Filename C:\Sharing_Geplant\Lee Morgan - The Complete Blue Note 50s Sessions (1995) [FLAC] {Mosaic Ltd. Ed.}\CD4\07 - Who Do You Love, I Hope.wav
Pre-gap length 0:00:02.40
Peak level 100.0 %
Track quality 100.0 %
Test CRC 45F4B9D1
Copy CRC 45F4B9D1
Copy OK
Track 8
Filename C:\Sharing_Geplant\Lee Morgan - The Complete Blue Note 50s Sessions (1995) [FLAC] {Mosaic Ltd. Ed.}\CD4\08 - Candy.wav
Pre-gap length 0:00:01.97
Peak level 98.2 %
Track quality 100.0 %
Test CRC 4B8B6C04
Copy CRC 4B8B6C04
Copy OK
Track 9
Filename C:\Sharing_Geplant\Lee Morgan - The Complete Blue Note 50s Sessions (1995) [FLAC] {Mosaic Ltd. Ed.}\CD4\09 - C. T. A..wav
Pre-gap length 0:00:01.60
Peak level 99.7 %
Track quality 100.0 %
Test CRC CDA6955D
Copy CRC CDA6955D
Copy OK
Track 10
Filename C:\Sharing_Geplant\Lee Morgan - The Complete Blue Note 50s Sessions (1995) [FLAC] {Mosaic Ltd. Ed.}\CD4\10 - All The Way.wav
Pre-gap length 0:00:01.40
Peak level 100.0 %
Track quality 100.0 %
Test CRC CB69F154
Copy CRC CB69F154
Copy OK
No errors occured
End of status report
>
Состав:
Pepper Adams Sax (Baritone)
Bob Blumenthal Liner Notes
Ray Bryant Piano
Paul Chambers Bass
Sonny Clark Piano
George Coleman Sax (Alto), Sax (Tenor)
Michael Cuscuna Producer
Curtis Fuller Trombone
Benny Golson Arranger, Composer, Sax (Tenor)
Gigi Gryce Composer, Flute, Sax (Alto)
Alfred Lion Producer
Owen Marshall Arranger, Composer
Hank Mobley Sax (Tenor)
Lee Morgan Composer, Trumpet
Charlie Persip Drums
Kenny Rodgers Sax (Alto)
Clarence Sharpe Sax (Alto)
Horace Silver Composer, Piano
Wilbur Ware Bass
Doug Watkins Bass
Приватный:
Нет (DHT включён)
Размер:
1.61 Гб (1,724,186,887 байт) » файлов: 119
Участники:
1 раздают, 0 качают (1 участников всего)
Внешние участники:
Нет внешних трекеров [ Обновить ]
14:30
94
RSS
Нет комментариев. Ваш будет первым!