Поиск

1955 (2003) Cannonball Adderley - Bohemia After Dark

1955 (2003) Cannonball Adderley - Bohemia After Dark
Страна-производитель диска (релиза):
USA
Дата записи диска:
28 июня и 14 июля 1955
Дата издания диска:
1955
Дата переиздания диска:
2003
Номер по каталогу:
SVY 17166
Носитель:
CD
Битрейт аудио:
lossless
Аудиокодек:
FLAC (*.flac)
Тип рипа:
tracks+.cue
Время звучания:
47:14
Наличие сканов:
  • да
Релизёр (источник):
mironov_ad
Треклист:

1. Bohemia After Dark (Pettiford) 6:05
2. Chasm (Adderley, Adderley) 4:22
3. Willow Weep for Me (Ronell) 6:22
4. Late Entry (Adderley, Adderley) 3:15
5. Hear Me Talkin' to Ya (Adderley, Adderley) 9:12
6. With Apologies to Oscar (Adderley, Adderley) 5:43
7. We'll Be Together Again (Fischer, Laine) 6:56
8. Caribbean Cutie [take 1 alternate] (Adderley) 5:16

Состав:

Альбом выпущен Savoy Jazz на основе записей, сделанных 28 июня и 14 июля 1955 года (остальная часть этих записей вошла в Spontaneous Combustion и That's Nat). Последний трек — бонусный.
Лог создания рипа
<spoiler title="Лог создания рипа"><pre>
EAC extraction logfile from 15. October 2007, 19:16 for CD
Adderley, Cannonball / Bohemia After Dark
Used drive : LITE-ON CD-ROM LTN-527T Adapter: 1 ID: 1
Read mode : Secure with NO C2, accurate stream, disable cache
Read offset correction : 12
Overread into Lead-In and Lead-Out : Yes
Used output format : C:\Program Files\FLAC\flac.exe (User Defined Encoder)
320 kBit/s
Additional command line options : -V -8 -T "artist=%a" -T "title=%t" -T "album=%g" -T "date=%y" -T "tracknumber=%n" -T "genre=%m" %s
Other options :
Fill up missing offset samples with silence : Yes
Delete leading and trailing silent blocks : No
Installed external ASPI interface
Track 1
Filename F:\Downloads\Cannonball Adderley - Bohemia After Dark (1955) [FLAC]\01 - Bohemia After Dark.wav
Pre-gap length 0:00:02.00
Peak level 100.0 %
Track quality 100.0 %
Test CRC 8F7AB789
Copy CRC 8F7AB789
Copy OK
Track 2
Filename F:\Downloads\Cannonball Adderley - Bohemia After Dark (1955) [FLAC]\02 - Chasm.wav
Pre-gap length 0:00:01.73
Peak level 100.0 %
Track quality 100.0 %
Test CRC E10A45BF
Copy CRC E10A45BF
Copy OK
Track 3
Filename F:\Downloads\Cannonball Adderley - Bohemia After Dark (1955) [FLAC]\03 - Willow Weep For Me.wav
Pre-gap length 0:00:01.04
Peak level 100.0 %
Track quality 100.0 %
Test CRC FBC6AF14
Copy CRC FBC6AF14
Copy OK
Track 4
Filename F:\Downloads\Cannonball Adderley - Bohemia After Dark (1955) [FLAC]\04 - Late Entry.wav
Pre-gap length 0:00:01.60
Peak level 100.0 %
Track quality 100.0 %
Test CRC 0770F913
Copy CRC 0770F913
Copy OK
Track 5
Filename F:\Downloads\Cannonball Adderley - Bohemia After Dark (1955) [FLAC]\05 - Hear Me Talkin' to Ya.wav
Pre-gap length 0:00:01.60
Peak level 100.0 %
Track quality 100.0 %
Test CRC 4300A418
Copy CRC 4300A418
Copy OK
Track 6
Filename F:\Downloads\Cannonball Adderley - Bohemia After Dark (1955) [FLAC]\06 - With Apologies To Oscar.wav
Pre-gap length 0:00:01.20
Peak level 100.0 %
Track quality 99.9 %
Test CRC 29BD87C6
Copy CRC 29BD87C6
Copy OK
Track 7
Filename F:\Downloads\Cannonball Adderley - Bohemia After Dark (1955) [FLAC]\07 - We'll Be Together Again.wav
Pre-gap length 0:00:01.40
Peak level 100.0 %
Track quality 100.0 %
Test CRC 1AB7B55E
Copy CRC 1AB7B55E
Copy OK
Track 8
Filename F:\Downloads\Cannonball Adderley - Bohemia After Dark (1955) [FLAC]\08 - Caribbean Cutie.wav
Pre-gap length 0:00:01.49
Peak level 100.0 %
Track quality 100.0 %
Test CRC D9D21281
Copy CRC D9D21281
Copy OK
No errors occured
End of status report
</pre></spoiler>
Приватный:
Нет (DHT включён)
Размер:
213.05 Мб (223,401,663 байт) » файлов: 17
Участники:
0 раздают, 0 качают (0 участников всего)
Внешние участники:
2 раздают, 1 качают (3 участников всего) [ Обновить ]
00:20
42
RSS
Нет комментариев. Ваш будет первым!