Поиск

1954 (2004) Oscar Peterson - Buddy de Franco & Oscar Peterson Play George Gershwin {Verve 547 642-2}

1954 (2004) Oscar Peterson - Buddy de Franco & Oscar Peterson Play George Gershwin {Verve 547 642-2}
Страна-производитель диска (релиза):
USA
Дата записи диска:
1954
Дата издания диска:
2004
Номер по каталогу:
547 642-2
Носитель:
CD
Битрейт аудио:
lossless
Аудиокодек:
FLAC (*.flac)
Тип рипа:
tracks
Время звучания:
50:31
Наличие сканов:
  • нет
Релизёр (источник):
(OHATA
Лог создания рипа
Отчёт EAC об извлечении, выполненном 24. января 2008, 18:04 для диска:
Buddy de Franco & Oscar Peterson / Play George Gershwin

Дисковод: TSSTcorpCDDVDW SH-S203D Adapter: 2 ID: 1
Режим чтения: Достоверный (C2: нет, Точный поток: да, Отключение кэша: да)
Коррекция смещения при чтении: 0
Способность читать области Lead-in и Lead-out : Нет

Выходной формат: Внутренние WAV-операции
44.100 Гц; 16 бит; стерео

Другие параметры:
Заполнение пропущенных сэмплов тишиной : Да
Удаление блоков с тишиной в начале и конце : Нет
Встроенный Win32-интерфейс для Win NT/2000

Трек 1
Имя файла D:\Music\RIP\Play George Gershwin (1954)\(01) I wants to stay here - Buddy de Franco & Oscar Peterson.wav

Пиковый уровень 88.3 %
Качество трека 100.0 %
CRC теста 1C33D6A6
CRC копии 1C33D6A6
Копирование... OK

Трек 2
Имя файла D:\Music\RIP\Play George Gershwin (1954)\(02) I was doing all right - Buddy de Franco & Oscar Peterson.wav

Пиковый уровень 88.8 %
Качество трека 100.0 %
CRC теста 90722004
CRC копии 90722004
Копирование... OK

Трек 3
Имя файла D:\Music\RIP\Play George Gershwin (1954)\(03) 's wonderful - Buddy de Franco & Oscar Peterson.wav

Пиковый уровень 99.9 %
Качество трека 99.9 %
CRC теста 0A97889C
CRC копии 0A97889C
Копирование... OK

Трек 4
Имя файла D:\Music\RIP\Play George Gershwin (1954)\(04) Bess, you is my woman now - Buddy de Franco & Oscar Peterson.wav

Пиковый уровень 94.5 %
Качество трека 100.0 %
CRC теста 52632C03
CRC копии 52632C03
Копирование... OK

Трек 5
Имя файла D:\Music\RIP\Play George Gershwin (1954)\(05) Strike up the band - Buddy de Franco & Oscar Peterson.wav

Пиковый уровень 99.9 %
Качество трека 100.0 %
CRC теста 79F39330
CRC копии 79F39330
Копирование... OK

Трек 6
Имя файла D:\Music\RIP\Play George Gershwin (1954)\(06) They can't take that away from me - Buddy de Franco & Oscar Peterson.wav

Пиковый уровень 86.3 %
Качество трека 100.0 %
CRC теста 549784AE
CRC копии 549784AE
Копирование... OK

Трек 7
Имя файла D:\Music\RIP\Play George Gershwin (1954)\(07) The man I love - Buddy de Franco & Oscar Peterson.wav

Пиковый уровень 100.0 %
Качество трека 99.9 %
CRC теста 2AFA812F
CRC копии 2AFA812F
Копирование... OK

Трек 8
Имя файла D:\Music\RIP\Play George Gershwin (1954)\(08) I got rhythm - Buddy de Franco & Oscar Peterson.wav

Пиковый уровень 100.0 %
Качество трека 100.0 %
CRC теста D5489EA9
CRC копии D5489EA9
Копирование... OK

Трек 9
Имя файла D:\Music\RIP\Play George Gershwin (1954)\(09) Someone to watch over me - Buddy de Franco & Oscar Peterson.wav

Пиковый уровень 99.9 %
Качество трека 100.0 %
CRC теста D119DB9A
CRC копии D119DB9A
Копирование... OK

Трек 10
Имя файла D:\Music\RIP\Play George Gershwin (1954)\(10) It ain't necessarily so - Buddy de Franco & Oscar Peterson.wav

Пиковый уровень 96.2 %
Качество трека 100.0 %
CRC теста 34A06DD2
CRC копии 34A06DD2
Копирование... OK

Трек 11
Имя файла D:\Music\RIP\Play George Gershwin (1954)\(11) I wants to stay here (alternate take) - Buddy de Franco & Oscar Peterson.wav

Пиковый уровень 81.5 %
Качество трека 100.0 %
CRC теста DE8CCAF6
CRC копии DE8CCAF6
Копирование... OK

Трек 12
Имя файла D:\Music\RIP\Play George Gershwin (1954)\(12) Someone to watch over me (alternate take) - Buddy de Franco & Oscar Peterson.wav

Пиковый уровень 92.8 %
Качество трека 100.0 %
CRC теста 9F2F342D
CRC копии 9F2F342D
Копирование... OK

Ошибок не произошло

Конец отчёта
Приватный:
Нет (DHT включён)
Размер:
183.45 Мб (192,365,156 байт) » файлов: 14
Участники:
0 раздают, 0 качают (0 участников всего)
Внешние участники:
2 раздают, 1 качают (3 участников всего) [ Обновить ]
22:01
82
RSS
Нет комментариев. Ваш будет первым!