Поиск

1947 (1990) Dexter Gordon & Wardell Gray - The Hunt {Savoy/Vogue SJL-2222 (650135)}

1947 (1990) Dexter Gordon & Wardell Gray - The Hunt {Savoy/Vogue SJL-2222 (650135)}
Стили:
Страна-производитель диска (релиза):
France
Дата записи диска:
6 июля 1947
Дата издания диска:
1977
Дата переиздания диска:
1990
Издатель (лейбл):
Номер по каталогу:
SJL-2222 / 650135
Носитель:
CD
Битрейт аудио:
lossless
Аудиокодек:
FLAC (*.flac)
Тип рипа:
tracks+.cue
Время звучания:
54:31
Наличие сканов:
  • да
Релизёр (источник):
Musicgate
Треклист:

01. Byas-A-Drink 19:15 (D. Byas)
02. The Hunt 18:05 (O. Cadena)
03. After Hours Bebop 16:33 (D. Gordon)

3 Probably recorded on April, 1947
1-2 Recorded on July 6, 1947, Los Angeles
Original session produced by Ralph Bass
Mastering : Rudy Van Gelder

Состав:
  • Howard McGhee: trumpet
  • Trummy Young: trombone
  • Sonny Criss: alto sax
  • Dexter Gordon: tenor sax
  • Wardell Gray: tenor sax (1 -2)
  • Hampton Hawes: piano
  • Barney Kessel: guitar
  • Harry Babison: bass (2)
  • Red Callender: bass (1-3)
  • Conny Kay: drums (1-2)
  • Roy Porter: drums (3)
Лог создания рипа
<spoiler title="Лог создания рипа"><pre>Exact Audio Copy V1.3 from 2. September 2016
EAC extraction logfile from 4. February 2017, 19:45
Dexter Gordon and Wardell Gray / The Hunt
Used drive  : HL-DT-STDVDRAM GH24NSB0   Adapter: 1  ID: 0
Read mode               : Secure
Utilize accurate stream : Yes
Defeat audio cache      : Yes
Make use of C2 pointers : No
Read offset correction                      : 6
Overread into Lead-In and Lead-Out          : No
Fill up missing offset samples with silence : Yes
Delete leading and trailing silent blocks   : No
Null samples used in CRC calculations       : Yes
Used interface                              : Native Win32 interface for Win NT & 2000
Gap handling                                : Appended to previous track
Used output format              : User Defined Encoder
Selected bitrate                : 1024 kBit/s
Quality                         : High
Add ID3 tag                     : No
Command line compressor         : C:\Program Files (x86)\Exact Audio Copy\FLAC\FLAC.EXE
Additional command line options : -V -8 -T "Genre=%genre%" -T "Artist=%artist%" -T "Title=%title%" -T "Album=%albumtitle%" -T "Date=%year%" -T "Tracknumber=%tracknr%" -T "Comment=%comment%" %source%
TOC of the extracted CD
     Track |   Start  |  Length  | Start sector | End sector
    ---------------------------------------------------------
        1  |  0:00.33 | 19:31.25 |        33    |    87882
        2  | 19:31.58 | 18:17.50 |     87883    |   170207
        3  | 37:49.33 | 16:42.00 |    170208    |   245357
Track  1
     Filename D:\Musicgate's rips\Dexter Gordon and Wardell Gray - The Hunt - 1990 [FLAC]\01 - Byas-A-Drink.wav
     Pre-gap length  0:00:02.33
     Peak level 95.5 %
     Extraction speed 1.4 X
     Track quality 100.0 %
     Test CRC A843A034
     Copy CRC A843A034
     Accurately ripped (confidence 1)  [B5290040]  (AR v2)
     Copy OK
Track  2
     Filename D:\Musicgate's rips\Dexter Gordon and Wardell Gray - The Hunt - 1990 [FLAC]\02 - The Hunt.wav
     Pre-gap length  0:00:02.13
     Peak level 100.0 %
     Extraction speed 1.8 X
     Track quality 100.0 %
     Test CRC 0A589DAB
     Copy CRC 0A589DAB
     Accurately ripped (confidence 1)  [EAD1AEAA]  (AR v2)
     Copy OK
Track  3
     Filename D:\Musicgate's rips\Dexter Gordon and Wardell Gray - The Hunt - 1990 [FLAC]\03 - After Hours Bebop.wav
     Pre-gap length  0:00:02.25
     Peak level 92.0 %
     Extraction speed 2.1 X
     Track quality 99.9 %
     Test CRC 2BA203E1
     Copy CRC 2BA203E1
     Accurately ripped (confidence 1)  [D0791E0E]  (AR v2)
     Copy OK
All tracks accurately ripped
No errors occurred
End of status report
==== Log checksum 9DD2F6E0B624F179A3A82E0E407801C4288DF7B96134F7BAC803BCEE293E80D9 ====</pre></spoiler>
Содержание индексной карты (.CUE)
<spoiler title="Содержание индексной карты (.CUE)"><pre>REM GENRE Jazz
REM DATE 1990
REM DISCID 1A0CC703
REM COMMENT "ExactAudioCopy v1.3"
PERFORMER "Dexter Gordon and Wardell Gray"
TITLE "The Hunt"
REM COMPOSER ""
FILE "01 - Byas-A-Drink.wav" WAVE
  TRACK 01 AUDIO
    TITLE "Byas-A-Drink"
    PERFORMER "Dexter Gordon and Wardell Gray"
    REM COMPOSER ""
    PREGAP 00:00:33
    INDEX 01 00:00:00
  TRACK 02 AUDIO
    TITLE "The Hunt"
    PERFORMER "Dexter Gordon and Wardell Gray"
    REM COMPOSER ""
    INDEX 00 19:29:12
FILE "02 - The Hunt.wav" WAVE
    INDEX 01 00:00:00
  TRACK 03 AUDIO
    TITLE "After Hours Bebop"
    PERFORMER "Dexter Gordon and Wardell Gray"
    REM COMPOSER ""
    INDEX 00 18:15:25
FILE "03 - After Hours Bebop.wav" WAVE
    INDEX 01 00:00:00</pre></spoiler>
Лог проверки качества
<spoiler title="Лог проверки качества"><img src="http://s019.radikal.ru/i633/1702/82/3478c1b06826.jpg" alt="Лог проверки качества" /></spoiler>
Приватный:
Нет (DHT включён)
Размер:
267.05 Мб (280,025,552 байт) » файлов: 14
Участники:
0 раздают, 0 качают (0 участников всего)
Внешние участники:
1 раздают, 0 качают (1 участников всего) [ Обновить ]
16:34
142
RSS
Нет комментариев. Ваш будет первым!