Поиск

1945-1958 (2011) Erroll Garner - The Man I Love (3CD) {Le Chant du Monde 3742167-3742169}

1945-1958 (2011) Erroll Garner - The Man I Love (3CD) {Le Chant du Monde 3742167-3742169}
Стили:
Страна-производитель диска (релиза):
Germany
Дата записи диска:
1945-1958
Дата издания диска:
2011
Номер по каталогу:
3742167
Носитель:
CD
Битрейт аудио:
lossless
Аудиокодек:
FLAC (*.flac)
Тип рипа:
image+.cue
Время звучания:
66'10; 68'36; 70'00
Наличие сканов:
  • да
Состав:
  • Erroll Garner — piano
  • Wyatt Ruther, John Levy Jr.,John Simmons, Al Hall, Edward Calhoun — bass
  • Eugene «Fats» Heard, George de Hart, Alvin Stoller, Shadow Wilson, Specs Powell, Kelly Martin — drums
01. Misty 2'50
02. Indiana 2'37
03. The Man I Love 2'42
04. Laura 2'49
05. How High The Moon 3'29
06. Sophisticated Lady 2'56
07. Robbin's Nest 3'22
08. Dancing Tambourine 3'55
09. Rose Room 5'07
10. Full Moon And Empty Arms 4'21
11. Some Of These Days 3'52
12. Alexander's Ragtime Band 3'42
13. Them There Eyes 4'44
14. Moonglow 5'30
15. Humoresque 5'12
16. I Got It Bad (And That Ain't Good) 5'48
17. Passin' Through 3'09

Total Time: 66'10
Exact Audio Copy V1.0 beta 6 from 9. April 2015
Отчёт EAC об извлечении, выполненном 4. февраля 2017, 23:17
Erroll Garner / Misty
Дисковод: ASUS DRW-24F1ST a Adapter: 1 ID: 0
Режим чтения : Достоверность
Использование точного потока : Да
Отключение кэша аудио : Да
Использование указателей C2 : Нет
Коррекция смещения при чтении : 6
Способность читать области Lead-in и Lead-out : Нет
Заполнение пропущенных сэмплов тишиной : Да
Удаление блоков с тишиной в начале и конце : Нет
При вычислениях CRC использовались нулевые сэмплы : Да
Интерфейс : Встроенный Win32-интерфейс для Win NT/2000
Выходной формат : Пользовательский кодировщик
Выбранный битрейт : 768 kBit/s
Качество : Высокий
Добавление ID3-тега : Нет
Утилита сжатия : D:\05. Other\10. КОМПЬЮТЕР\Exact Audio Copy\FLAC\FLAC.EXE
Дополнительные параметры : -6 -V -T "ARTIST=%artist%" -T "TITLE=%title%" -T "ALBUM=%albumtitle%" -T "DATE=%year%" -T "TRACKNUMBER=%tracknr%" -T "GENRE=%genre%" -T "COMMENT=%comment%" -T "BAND=%albuminterpret%" -T "ALBUMARTIST=%albuminterpret%" -T "COMPOSER=%composer%" %haslyrics%--tag-from-file=LYRICS="%lyricsfile%"%haslyrics% -T "DISCNUMBER=%cdnumber%" -T "TOTALDISCS=%totalcds%" -T "TOTALTRACKS=%numtracks%" %hascover%--picture="%coverfile%"%hascover% %source% -o %dest%
TOC извлечённого CD Трек | Старт | Длительность | Начальный сектор | Конечный сектор --------------------------------------------------------------------- 1 | 0:00.00 | 2:50.67 | 0 | 12816 2 | 2:50.67 | 2:37.62 | 12817 | 24653 3 | 5:28.54 | 2:42.42 | 24654 | 36845 4 | 8:11.21 | 2:49.41 | 36846 | 49561 5 | 11:00.62 | 3:29.39 | 49562 | 65275 6 | 14:30.26 | 2:56.40 | 65276 | 78515 7 | 17:26.66 | 3:22.63 | 78516 | 93728 8 | 20:49.54 | 3:55.29 | 93729 | 111382 9 | 24:45.08 | 5:07.04 | 111383 | 134411 10 | 29:52.12 | 4:21.45 | 134412 | 154031 11 | 34:13.57 | 3:52.50 | 154032 | 171481 12 | 38:06.32 | 3:42.45 | 171482 | 188176 13 | 41:49.02 | 4:44.06 | 188177 | 209482 14 | 46:33.08 | 5:30.51 | 209483 | 234283 15 | 52:03.59 | 5:12.50 | 234284 | 257733 16 | 57:16.34 | 5:48.37 | 257734 | 283870 17 | 63:04.71 | 3:09.26 | 283871 | 298071
Характеристики диапазона извлечения и сообщения об ошибках
Выбранный диапазон Имя файла D:\Erroll Garner - The Man I Love (2011) 3CD\CD1 - Misty\Erroll Garner - Misty.wav Пиковый уровень 94.2 % Скорость извлечения 3.2 X Качество диапазона 100.0 % CRC теста 10FB1B32 CRC копии 10FB1B32 Копирование... OK
Ошибок не произошло
AccurateRip: сводка
Трек 1 : извлечено точно (доверие 1) [C0E38C78] (AR v2)
Трек 2 : извлечено точно (доверие 1) [285730B2] (AR v2)
Трек 3 : извлечено точно (доверие 1) [10D9AB58] (AR v2)
Трек 4 : извлечено точно (доверие 1) [D50B8F2B] (AR v2)
Трек 5 : извлечено точно (доверие 1) [8298469E] (AR v2)
Трек 6 : извлечено точно (доверие 1) [C2DCCD08] (AR v2)
Трек 7 : извлечено точно (доверие 1) [9BB00394] (AR v2)
Трек 8 : извлечено точно (доверие 1) [FF0F89A3] (AR v2)
Трек 9 : извлечено точно (доверие 1) [7EE5E2B5] (AR v2)
Трек 10 : извлечено точно (доверие 1) [4866A41C] (AR v2)
Трек 11 : извлечено точно (доверие 1) [7F41F2E7] (AR v2)
Трек 12 : извлечено точно (доверие 1) [C23D2943] (AR v2)
Трек 13 : извлечено точно (доверие 1) [EFD924C8] (AR v2)
Трек 14 : извлечено точно (доверие 1) [CE49A8E0] (AR v2)
Трек 15 : извлечено точно (доверие 1) [50B926C6] (AR v2)
Трек 16 : извлечено точно (доверие 1) [6918D004] (AR v2)
Трек 17 : извлечено точно (доверие 1) [9EB48581] (AR v2)
Все треки извлечены точно
Конец отчёта
==== Контрольная сумма отчёта 2B989F7BA9C97915525A2F0C57E16200F7A3AD9329B46A479D165E6A36FDBFE7 ====
01. Erroll's Bounce 3'02
02. Fancy 4'29
03. The Music Goes 'Round And 'Round 3'35
04. Dancing In The Dark 3'44
05. It Might As We Be Spring 8'34
06. Solitaire 6'32
07. Until The Real Thing Comes Along 5'01
08. Stumbling 5'04
09. Don't Get Around Much Anymore 5'00
10. You'd Be So Nice To Come Home 6'27
11. No More Time 6'38
12. If I Had You 4'33
13. Soliloquy 6'00

Total Time: 68'36
Exact Audio Copy V1.0 beta 6 from 9. April 2015
Отчёт EAC об извлечении, выполненном 4. февраля 2017, 20:41
Erroll Garner / Soliloquy
Дисковод: ASUS DRW-24F1ST a Adapter: 1 ID: 0
Режим чтения : Достоверность
Использование точного потока : Да
Отключение кэша аудио : Да
Использование указателей C2 : Нет
Коррекция смещения при чтении : 6
Способность читать области Lead-in и Lead-out : Нет
Заполнение пропущенных сэмплов тишиной : Да
Удаление блоков с тишиной в начале и конце : Нет
При вычислениях CRC использовались нулевые сэмплы : Да
Интерфейс : Встроенный Win32-интерфейс для Win NT/2000
Выходной формат : Пользовательский кодировщик
Выбранный битрейт : 768 kBit/s
Качество : Высокий
Добавление ID3-тега : Нет
Утилита сжатия : D:\05. Other\10. КОМПЬЮТЕР\Exact Audio Copy\FLAC\FLAC.EXE
Дополнительные параметры : -6 -V -T "ARTIST=%artist%" -T "TITLE=%title%" -T "ALBUM=%albumtitle%" -T "DATE=%year%" -T "TRACKNUMBER=%tracknr%" -T "GENRE=%genre%" -T "COMMENT=%comment%" -T "BAND=%albuminterpret%" -T "ALBUMARTIST=%albuminterpret%" -T "COMPOSER=%composer%" %haslyrics%--tag-from-file=LYRICS="%lyricsfile%"%haslyrics% -T "DISCNUMBER=%cdnumber%" -T "TOTALDISCS=%totalcds%" -T "TOTALTRACKS=%numtracks%" %hascover%--picture="%coverfile%"%hascover% %source% -o %dest%
TOC извлечённого CD Трек | Старт | Длительность | Начальный сектор | Конечный сектор --------------------------------------------------------------------- 1 | 0:00.00 | 3:02.53 | 0 | 13702 2 | 3:02.53 | 4:29.46 | 13703 | 33923 3 | 7:32.24 | 3:35.06 | 33924 | 50054 4 | 11:07.30 | 3:44.50 | 50055 | 66904 5 | 14:52.05 | 8:34.54 | 66905 | 105508 6 | 23:26.59 | 6:32.00 | 105509 | 134908 7 | 29:58.59 | 5:01.41 | 134909 | 157524 8 | 35:00.25 | 5:04.19 | 157525 | 180343 9 | 40:04.44 | 5:00.21 | 180344 | 202864 10 | 45:04.65 | 6:27.47 | 202865 | 231936 11 | 51:32.37 | 6:38.54 | 231937 | 261840 12 | 58:11.16 | 4:33.20 | 261841 | 282335 13 | 62:44.36 | 6:00.72 | 282336 | 309407
Характеристики диапазона извлечения и сообщения об ошибках
Выбранный диапазон Имя файла D:\Erroll Garner - The Man I Love (2011) 3CD\CD2 - Soliloquy\Erroll Garner - Soliloquy.wav Пиковый уровень 94.7 % Скорость извлечения 3.3 X Качество диапазона 99.9 % CRC теста 72A41463 CRC копии 72A41463 Копирование... OK
Ошибок не произошло
AccurateRip: сводка
Трек 1 : извлечено точно (доверие 1) [ED3D4723] (AR v2)
Трек 2 : извлечено точно (доверие 1) [E3D1E0B9] (AR v2)
Трек 3 : извлечено точно (доверие 1) [284CC7E8] (AR v2)
Трек 4 : извлечено точно (доверие 1) [EC939616] (AR v2)
Трек 5 : извлечено точно (доверие 1) [4B8F882B] (AR v2)
Трек 6 : извлечено точно (доверие 1) [A5F2FD02] (AR v2)
Трек 7 : извлечено точно (доверие 1) [0919C705] (AR v2)
Трек 8 : извлечено точно (доверие 1) [2461FFA7] (AR v2)
Трек 9 : извлечено точно (доверие 1) [BB3AEE1F] (AR v2)
Трек 10 : извлечено точно (доверие 1) [F7A036E4] (AR v2)
Трек 11 : извлечено точно (доверие 1) [158403BC] (AR v2)
Трек 12 : извлечено точно (доверие 1) [39E22B52] (AR v2)
Трек 13 : извлечено точно (доверие 1) [8099F932] (AR v2)
Все треки извлечены точно
Конец отчёта
==== Контрольная сумма отчёта 61972D85C283A6EF0F2D3DA71654C98861A34CDAB5D9D2D77D32E1410A4A0264 ====
01. The Song from Moulin Rouge (Where Is Your Heart?) 3'36
02. I Love Paris 5'09
03. French Doll 5'53
04. Louise 4'13
05. Farewell To Paris 7'23
06. Left Bank Swing 5'46
07. La Vie en Rose 4'20
08. The French Touch 6'03
09. Paris Bounce 4'28
10. My Man 6'08
11. La Petite Mambo 4'39
12. The Last Time I Saw Paris 5'38
13. Moroccan Quarter 6'53

Total Time: 70'00
Exact Audio Copy V1.0 beta 6 from 9. April 2015
Отчёт EAC об извлечении, выполненном 4. февраля 2017, 21:56
Erroll Garner / I Love Paris
Дисковод: ASUS DRW-24F1ST a Adapter: 1 ID: 0
Режим чтения : Достоверность
Использование точного потока : Да
Отключение кэша аудио : Да
Использование указателей C2 : Нет
Коррекция смещения при чтении : 6
Способность читать области Lead-in и Lead-out : Нет
Заполнение пропущенных сэмплов тишиной : Да
Удаление блоков с тишиной в начале и конце : Нет
При вычислениях CRC использовались нулевые сэмплы : Да
Интерфейс : Встроенный Win32-интерфейс для Win NT/2000
Выходной формат : Пользовательский кодировщик
Выбранный битрейт : 768 kBit/s
Качество : Высокий
Добавление ID3-тега : Нет
Утилита сжатия : D:\05. Other\10. КОМПЬЮТЕР\Exact Audio Copy\FLAC\FLAC.EXE
Дополнительные параметры : -6 -V -T "ARTIST=%artist%" -T "TITLE=%title%" -T "ALBUM=%albumtitle%" -T "DATE=%year%" -T "TRACKNUMBER=%tracknr%" -T "GENRE=%genre%" -T "COMMENT=%comment%" -T "BAND=%albuminterpret%" -T "ALBUMARTIST=%albuminterpret%" -T "COMPOSER=%composer%" %haslyrics%--tag-from-file=LYRICS="%lyricsfile%"%haslyrics% -T "DISCNUMBER=%cdnumber%" -T "TOTALDISCS=%totalcds%" -T "TOTALTRACKS=%numtracks%" %hascover%--picture="%coverfile%"%hascover% %source% -o %dest%
TOC извлечённого CD Трек | Старт | Длительность | Начальный сектор | Конечный сектор --------------------------------------------------------------------- 1 | 0:00.00 | 3:35.13 | 0 | 16137 2 | 3:35.13 | 5:08.62 | 16138 | 39299 3 | 8:44.00 | 5:52.30 | 39300 | 65729 4 | 14:36.30 | 4:12.28 | 65730 | 84657 5 | 18:48.58 | 7:22.02 | 84658 | 117809 6 | 26:10.60 | 5:45.28 | 117810 | 143712 7 | 31:56.13 | 4:19.30 | 143713 | 163167 8 | 36:15.43 | 6:02.32 | 163168 | 190349 9 | 42:18.00 | 4:27.65 | 190350 | 210439 10 | 46:45.65 | 6:07.45 | 210440 | 238009 11 | 52:53.35 | 4:38.43 | 238010 | 258902 12 | 57:32.03 | 5:37.02 | 258903 | 284179 13 | 63:09.05 | 6:52.52 | 284180 | 315131
Характеристики диапазона извлечения и сообщения об ошибках
Выбранный диапазон Имя файла D:\Erroll Garner - The Man I Love (2011) 3CD\CD3 - I Love Paris\Erroll Garner - I Love Paris.wav Пиковый уровень 95.6 % Скорость извлечения 3.4 X Качество диапазона 100.0 % CRC теста 06ED30E2 CRC копии 06ED30E2 Копирование... OK
Ошибок не произошло
AccurateRip: сводка
Трек 1 : извлечено точно (доверие 1) [16EB7461] (AR v2)
Трек 2 : извлечено точно (доверие 1) [F810B774] (AR v2)
Трек 3 : извлечено точно (доверие 1) [AAB04FC1] (AR v2)
Трек 4 : извлечено точно (доверие 1) [A90BA43E] (AR v2)
Трек 5 : извлечено точно (доверие 1) [9E6919ED] (AR v2)
Трек 6 : извлечено точно (доверие 1) [68193883] (AR v2)
Трек 7 : извлечено точно (доверие 1) [B1EA1D56] (AR v2)
Трек 8 : извлечено точно (доверие 1) [6F7E1C53] (AR v2)
Трек 9 : извлечено точно (доверие 1) [50058B29] (AR v2)
Трек 10 : извлечено точно (доверие 1) [6F220DD0] (AR v2)
Трек 11 : извлечено точно (доверие 1) [F4EE0C8D] (AR v2)
Трек 12 : извлечено точно (доверие 1) [BC6FC590] (AR v2)
Трек 13 : извлечено точно (доверие 1) [55281525] (AR v2)
Все треки извлечены точно
Конец отчёта
==== Контрольная сумма отчёта 7F0DFA0B4E26D3649F0996B9ADC643EB80F7E9AA9CD9EA471C471C25DA1F40C4 ====
13:20
129
RSS
Нет комментариев. Ваш будет первым!