Поиск

1942-1947 (1995) Lester Young - The Complete Aladdin Recordings (2CD) {Blue Note CDP 7243 8 32787 2 5}

1942-1947 (1995) Lester Young - The Complete Aladdin Recordings (2CD) {Blue Note CDP 7243 8 32787 2 5}
Страна-производитель диска (релиза):
USA
Дата записи диска:
между 15 июля 1945 и 29 декабря 1947
Дата издания диска:
26 сентября 1995
Издатель (лейбл):
Номер по каталогу:
CDP 7243 8 32787 2 5
Носитель:
CD
Битрейт аудио:
lossless
Аудиокодек:
APE (*.ape)
Тип рипа:
image+.cue
Время звучания:
CD1 - 60:48; CD2 - 64:03
Наличие сканов:
  • да
Релизёр (источник):
Mazeppa

Треклист:

CD1:
01. Indiana
02. I Can't Get Started
03. Tea for Two
04. Body and Soul
05. D.B. Blues
06. Lester Blows Again
07. These Foolish Things
08. Jumpin' at Mesner's
09. It's Only a Paper Moon
10. After You've Gone
11. Lover Come Back to Me
12. Jammin' with Lester
13. You're Driving Me Crazy
14. New Lester Leaps In
15. Lester's Be Bop Boogie
16. She's Funny That Way
17. Sunday
18. S.M. Blues
CD2:
01. Jumpin' with Symphony Sid
02. No Eyes Blues
03. Sax-O-Be-Bop
04. On the Sunny Side of the Street
05. Easy Does It
06. Easy Does It (alternate take)
07. Movin' with Lester
08. One O'Clock Jump
09. Jumpin' at the Woodside
10. I'm Confessin'
11. Lester Smooths It Out
12. Just Cooling
13. Tea for Two
14. East of the Sun
15. The Sheik of Araby
16. Something to Remember You By
17. Riffin' Without Helen
18. Please Let Me Forget
19. He Don't Love Me Anymore
20. Pleasing Man Blues
21. See See Rider
22. It's Better to Give Than Receive

Состав:
  • Lester Young — tenor saxophone
  • Helen Humes — vocals
  • Willie Smith — alto saxophone
  • Maxwell Davis — tenor saxophone
  • Howard McGhee, Shorty McConnell — trumpet
  • Vic Dickenson — trombone
  • Dodo Marmarosa, Nat Cole, Wesley Jones, Joe Albany, Argonne "Sadik Hakim" Thornton, Gene DiNovi, Jimmy Bunn — piano
  • Irving Ashby, Fred Lacey, Nasir Barakaat, Chuck Wayne, Dave Barbour — guitar
  • Red Callender, Curtis Counce, Rodney Richardson, Ted Briscoe, Curly Russell, Junior Rudd — bass
  • Henry Tucker, Johnny Otis, Chico Hamilton, Lyndell Marshall, Roy Haynes, Tiny Kahn — drums

Записано в Los Angeles, California; Chicago, Illinois; New York, New York between July 15, 1942 and December 29, 1947.

Лог создания рипа CD1
EAC extraction logfile from 19. December 2006, 17:42 for CD
Lester Young / The Complete Aladdin Recordings
Used drive : LITE-ON CD-ROM LTN-527T Adapter: 1 ID: 1
Read mode : Secure with NO C2, accurate stream, disable cache
Read offset correction : 12
Overread into Lead-In and Lead-Out : Yes
Used output format : C:\Program Files\Monkey's Audio\MAC.exe (Monkey's Audio Lossless Encoder) High Lossless Compression
Other options : Fill up missing offset samples with silence : Yes Delete leading and trailing silent blocks : No Installed external ASPI interface
Range status and errors
Selected range Filename F:\Downloads\Lester Young - Complete Aladdin Recordings (1942-46)[APE Full Scans]\CD 1\Lester Young - The Complete Aladdin Recordings .wav.wav Peak level 100.0 % Range quality 100.0 % CRC BB3932EB Copy OK
No errors occured
End of status report
[свернуть]
Лог создания рипа CD2
EAC extraction logfile from 19. December 2006, 18:38 for CD
Lester Young / The Complete Aladdin Recordings [disc 2]
Used drive : LITE-ON CD-ROM LTN-527T Adapter: 1 ID: 1
Read mode : Secure with NO C2, accurate stream, disable cache
Read offset correction : 12
Overread into Lead-In and Lead-Out : Yes
Used output format : C:\Program Files\Monkey's Audio\MAC.exe (Monkey's Audio Lossless Encoder) High Lossless Compression
Other options : Fill up missing offset samples with silence : Yes Delete leading and trailing silent blocks : No Installed external ASPI interface
Range status and errors
Selected range Filename F:\Downloads\Lester Young - Complete Aladdin Recordings (1942-46)[APE Full Scans]\CD 2\Lester Young - The Complete Aladdin Recordings [disc 2].wav.wav Peak level 100.0 % Range quality 100.0 % CRC FD9C801A Copy OK
No errors occured
End of status report
Содержание индексной карты (.CUE) CD1
REM DISCID 100E4012
REM COMMENT "ExactAudioCopy v0.95b4"
CATALOG 0724383389322
PERFORMER "Lester Young"
TITLE "The Complete Aladdin Recordings CD1"
FILE "Lester Young - The Complete Aladdin Recordings CD1.wav" WAVE TRACK 01 AUDIO TITLE "Indiana" PERFORMER "Lester Young" INDEX 01 00:00:00 TRACK 02 AUDIO TITLE "I Can't Get Started" PERFORMER "Lester Young" INDEX 00 04:50:45 INDEX 01 04:53:20 TRACK 03 AUDIO TITLE "Tea for Two" PERFORMER "Lester Young" INDEX 00 09:46:00 INDEX 01 09:48:37 TRACK 04 AUDIO TITLE "Body and Soul" PERFORMER "Lester Young" INDEX 00 14:34:07 INDEX 01 14:36:50 TRACK 05 AUDIO TITLE "D.B. Blues" PERFORMER "Lester Young" INDEX 00 19:44:20 INDEX 01 19:46:60 TRACK 06 AUDIO TITLE "Lester Blows Again" PERFORMER "Lester Young" INDEX 00 22:44:67 INDEX 01 22:47:17 TRACK 07 AUDIO TITLE "These Foolish Things" PERFORMER "Lester Young" INDEX 00 25:16:70 INDEX 01 25:19:22 TRACK 08 AUDIO TITLE "Jumpin' at Mesner's" PERFORMER "Lester Young" INDEX 00 28:28:07 INDEX 01 28:30:17 TRACK 09 AUDIO TITLE "It's Only a Paper Moon" PERFORMER "Lester Young" INDEX 00 31:12:65 INDEX 01 31:15:27 TRACK 10 AUDIO TITLE "After You've Gone" PERFORMER "Lester Young" INDEX 00 34:18:62 INDEX 01 34:21:15 TRACK 11 AUDIO TITLE "Lover Come Back to Me" PERFORMER "Lester Young" INDEX 00 37:01:10 INDEX 01 37:03:35 TRACK 12 AUDIO TITLE "Jammin' with Lester" PERFORMER "Lester Young" INDEX 00 39:38:17 INDEX 01 39:40:67 TRACK 13 AUDIO TITLE "You're Driving Me Crazy" PERFORMER "Lester Young" INDEX 00 42:41:55 INDEX 01 42:44:05 TRACK 14 AUDIO TITLE "New Lester Leaps In" PERFORMER "Lester Young" INDEX 00 45:48:02 INDEX 01 45:50:12 TRACK 15 AUDIO TITLE "Lester's Be Bop Boogie" PERFORMER "Lester Young" INDEX 00 48:45:32 INDEX 01 48:47:65 TRACK 16 AUDIO TITLE "She's Funny That Way" PERFORMER "Lester Young" INDEX 00 51:59:45 INDEX 01 52:01:65 TRACK 17 AUDIO TITLE "Sunday" PERFORMER "Lester Young" INDEX 00 55:19:60 INDEX 01 55:22:37 TRACK 18 AUDIO TITLE "S.M. Blues" PERFORMER "Lester Young" INDEX 00 57:44:60 INDEX 01 57:46:72
[свернуть]
Содержание индексной карты (.CUE) CD2
REM GENRE Swing
REM DATE 1995
REM DISCID 230F0316
REM COMMENT "ExactAudioCopy v0.95b4"
CATALOG 0724383389421
PERFORMER "Lester Young"
TITLE "The Complete Aladdin Recordings CD2"
FILE "Lester Young - The Complete Aladdin Recordings CD2.wav" WAVE TRACK 01 AUDIO TITLE "Jumpin' with Symphony Sid" PERFORMER "Lester Young" INDEX 01 00:00:00 TRACK 02 AUDIO TITLE "No Eyes Blues" PERFORMER "Lester Young" INDEX 00 03:09:15 INDEX 01 03:10:72 TRACK 03 AUDIO TITLE "Sax-O-Be-Bop" PERFORMER "Lester Young" INDEX 00 06:08:55 INDEX 01 06:11:25 TRACK 04 AUDIO TITLE "On the Sunny Side of the Street" PERFORMER "Lester Young" INDEX 00 09:02:22 INDEX 01 09:04:52 TRACK 05 AUDIO TITLE "Easy Does It" PERFORMER "Lester Young" INDEX 00 12:02:12 INDEX 01 12:04:65 TRACK 06 AUDIO TITLE "Easy Does It (alternate take)" PERFORMER "Lester Young" INDEX 00 14:35:55 INDEX 01 14:38:45 TRACK 07 AUDIO TITLE "Movin' with Lester" PERFORMER "Lester Young" INDEX 00 17:05:72 INDEX 01 17:08:27 TRACK 08 AUDIO TITLE "One O'Clock Jump" PERFORMER "Lester Young" INDEX 00 20:16:72 INDEX 01 20:19:55 TRACK 09 AUDIO TITLE "Jumpin' at the Woodside" PERFORMER "Lester Young" INDEX 00 22:55:67 INDEX 01 22:58:40 TRACK 10 AUDIO TITLE "I'm Confessin'" PERFORMER "Lester Young" INDEX 00 25:55:62 INDEX 01 25:58:62 TRACK 11 AUDIO TITLE "Lester Smooths It Out" PERFORMER "Lester Young" INDEX 00 28:27:50 INDEX 01 28:30:27 TRACK 12 AUDIO TITLE "Just Cooling" PERFORMER "Lester Young" INDEX 00 31:22:32 INDEX 01 31:25:22 TRACK 13 AUDIO TITLE "Tea for Two" PERFORMER "Lester Young" INDEX 00 34:21:65 INDEX 01 34:24:35 TRACK 14 AUDIO TITLE "East of the Sun" PERFORMER "Lester Young" INDEX 00 37:30:25 INDEX 01 37:32:70 TRACK 15 AUDIO TITLE "The Sheik of Araby" PERFORMER "Lester Young" INDEX 00 40:40:35 INDEX 01 40:42:70 TRACK 16 AUDIO TITLE "Something to Remember You By" PERFORMER "Lester Young" INDEX 00 43:11:62 INDEX 01 43:14:30 TRACK 17 AUDIO TITLE "Riffin' Without Helen" PERFORMER "Lester Young" INDEX 00 45:56:55 INDEX 01 45:59:02 TRACK 18 AUDIO TITLE "Please Let Me Forget" PERFORMER "Lester Young" INDEX 00 49:09:25 INDEX 01 49:12:10 TRACK 19 AUDIO TITLE "He Don't Love Me Anymore" PERFORMER "Lester Young" INDEX 00 52:19:45 INDEX 01 52:21:62 TRACK 20 AUDIO TITLE "Pleasing Man Blues" PERFORMER "Lester Young" INDEX 00 55:10:67 INDEX 01 55:13:35 TRACK 21 AUDIO TITLE "See See Rider" PERFORMER "Lester Young" INDEX 00 58:17:10 INDEX 01 58:19:67 TRACK 22 AUDIO TITLE "It's Better to Give Than Receive" PERFORMER "Lester Young" INDEX 00 61:06:32 INDEX 01 61:09:00
Приватный:
Нет (DHT включён)
Размер:
383.14 Мб (401,748,522 байт) » файлов: 26
Участники:
0 раздают, 0 качают (0 участников всего)
Внешние участники:
3 раздают, 1 качают (4 участников всего) [ Обновить ]
Скорость:
Торрент не зарегистрирован на трекере
23:27
176
RSS
Нет комментариев. Ваш будет первым!