Поиск

1939-1941 (1989) Benny Goodman - Benny Goodman Sextet Featuring Charlie Christian {Legacy / Columbia 45144}

1939-1941 (1989) Benny Goodman - Benny Goodman Sextet Featuring Charlie Christian {Legacy / Columbia 45144}
Страна-производитель диска (релиза):
USA
Дата записи диска:
2 октября 1939 - 13 марта 1941
Дата издания диска:
22 августа 1989
Номер по каталогу:
45144
Носитель:
CD
Битрейт аудио:
lossless
Аудиокодек:
FLAC (*.flac)
Тип рипа:
image+.cue
Время звучания:
54:30
Наличие сканов:
  • нет
Релизёр (источник):
Mallard
Треклист:

01. Flying Home 3:18
02. Stardust 3:17
03. Memories Of You 3:13
04. Soft Winds 2:31
05. Shivers 2:51
06. AC/DC Current 2:50
07. I'm Confessing (That I Love You) 3:00
08. The Shiek Of Araby 3:18
09. Poor Butterfly 2:52
10. I Surrender, Dear 3:02
11. These Foolish Things 3:14
12. Good Enough to Keep 2:55
13. Breakfast Feud 3:17
14. I Can't Give You Anything But Love, Baby 3:25
15. Gilly 2:37
16. On the Alamo 3:33
17. Gone With What Draft 2:44
18. A Smo-o-o-oth One 3:17
 

Состав:
  • Georgie Auld Sax (Tenor)
  • Count Basie Composer, Piano
  • Artie Bernstein Bass
  • Dudley Brooks Piano
  • Michael Brooks Producer
  • Charlie Christian Composer, Guitar (Electric)
  • Nick Fatool Drums
  • Leonard Feather Liner Notes
  • Benny Goodman Clarinet, Composer
  • Johnny Guarnieri Piano
  • /artists//artists//artists//artists//artists//artists//artists//artists//artists//artists//artists/AMM.html">AMM
  • .html">AMM
.html">AMM.html">AMM.html">AMM.html">AMM.html">AMM-88.html">AMM-88.html">AMM-88.html">AMM-88.html">AMM-88.html">AMM-88.html">AMM-88.html">AMM-88.html">AMM-88.html">AMM-88.html">AMM-88.html">AMM-88.html">AMM-88.html">AMM-88.html">AMMond-346.html">John H/artists//artists//artists//artists//artists//artists//artists//artists//artists//artists//artists/amm.html">AMM.html">AMM.html">AMM.html">AMM.html">AMM.html">AMM.html">AMM.html">AMM-88.html">AMM-88.html">AMM-88.html">AMM-88.html">AMM-88.html">AMM-88.html">AMM-88.html">AMM-88.html">AMM-88.html">AMM-88.html">AMM-88.html">AMM-88.html">AMM-88.html">AMM-88.html">AMMond Producer /artists//artists//artists//artists//artists//artists//artists//artists//artists//artists//artists/AMM.html">AMM.html">AMM.html">AMM.html">AMM.html">AMM.html">AMM.html">AMM-88.html">AMM-88.html">AMM-88.html">AMM-88.html">AMM-88.html">AMM-88.html">AMM-88.html">AMM-88.html">AMM-88.html">AMM-88.html">AMM-88.html">AMM-88.html">AMM-88.html">AMM-88.html">AMMond-346.html">John H/artists//artists//artists//artists//artists//artists//artists//artists//artists//artists//artists/amm.html">AMM.html">AMM.html">AMM.html">AMM.html">AMM.html">AMM.html">AMM.html">AMM-88.html">AMM-88.html">AMM-88.html">AMM-88.html">AMM-88.html">AMM-88.html">AMM-88.html">AMM-88.html">AMM-88.html">AMM-88.html">AMM-88.html">AMM-88.html">AMM-88.html">AMM-88.html">AMMond, Sr. Producer Lionel Hampton Composer, Vibraphone Fletcher Henderson Composer, Piano Harry Jaeger Drums Jo Jones Drums Ken Kersey Piano Gene Krupa Drums Dave Tough Drums Cootie Williams Trumpet
<spoiler title="Лог создания рипа"><pre>Exact Audio Copy V0.99 prebeta 3 from 28. July 2007
EAC extraction logfile from 21. December 2007, 21:18
Benny Goodman / Featuring Charlie Christian 1939-1941
Used drive : Optiarc DVD RW AD-5170A Adapter: 4 ID: 0
Read mode : Secure
Utilize accurate stream : Yes
Defeat audio cache : No
Make use of C2 pointers : Yes
Read offset correction : 48
Overread into Lead-In and Lead-Out : No
Fill up missing offset samples with silence : Yes
Delete leading and trailing silent blocks : No
Null samples used in CRC calculations : Yes
Used interface : Native Win32 interface for Win NT & 2000
Gap handling : Appended to previous track
Used output format : User Defined Encoder
Selected bitrate : 256 kBit/s
Quality : High
Add ID3 tag : No
Command line compressor : C:\Program\Exact Audio Copy\Flac\flac.exe
Additional command line options : -8 -A tukey(0.25) -A gauss(0.1875) -b 4096 -V -T "artist=%a" -T "title=%t" -T "album=%g" -T "date=%y" -T "tracknumber=%n" -T "genre=%m" %s --sector-align
TOC of the extracted CD Track | Start | Length | Start sector | End sector --------------------------------------------------------- 1 | 0:00.00 | 3:18.02 | 0 | 14851 2 | 3:18.02 | 3:17.20 | 14852 | 29646 3 | 6:35.22 | 3:13.40 | 29647 | 44161 4 | 9:48.62 | 2:31.20 | 44162 | 55506 5 | 12:20.07 | 2:51.73 | 55507 | 68404 6 | 15:12.05 | 2:50.17 | 68405 | 81171 7 | 18:02.22 | 3:00.50 | 81172 | 94721 8 | 21:02.72 | 3:18.10 | 94722 | 109581 9 | 24:21.07 | 2:52.63 | 109582 | 122544 10 | 27:13.70 | 3:02.07 | 122545 | 136201 11 | 30:16.02 | 3:14.58 | 136202 | 150809 12 | 33:30.60 | 2:55.65 | 150810 | 163999 13 | 36:26.50 | 3:17.05 | 164000 | 178779 14 | 39:43.55 | 3:25.30 | 178780 | 194184 15 | 43:09.10 | 2:37.40 | 194185 | 205999 16 | 45:46.50 | 3:33.15 | 206000 | 221989 17 | 49:19.65 | 2:44.30 | 221990 | 234319 18 | 52:04.20 | 3:17.30 | 234320 | 249124
Track 1 Filename D:\Temp\Benny Goodman - Featuring Charlie Christian 1939-1941\01 - Benny Goodman -Flying Home.wav Pre-gap length 0:00:02.00 Peak level 75.5 % Track quality 100.0 % Test CRC E5D7A330 Copy CRC E5D7A330 Track not present in AccurateRip database Copy OK
Track 2 Filename D:\Temp\Benny Goodman - Featuring Charlie Christian 1939-1941\02 - Benny Goodman -Stardust.wav Pre-gap length 0:00:02.60 Peak level 59.6 % Track quality 100.0 % Test CRC D9A7F06B Copy CRC D9A7F06B Track not present in AccurateRip database Copy OK
Track 3 Filename D:\Temp\Benny Goodman - Featuring Charlie Christian 1939-1941\03 - Benny Goodman -Memories Of You.wav Pre-gap length 0:00:02.60 Peak level 67.4 % Track quality 100.0 % Test CRC 3BD830F6 Copy CRC 3BD830F6 Track not present in AccurateRip database Copy OK
Track 4 Filename D:\Temp\Benny Goodman - Featuring Charlie Christian 1939-1941\04 - Benny Goodman -Soft Winds.wav Pre-gap length 0:00:02.55 Peak level 67.4 % Track quality 100.0 % Test CRC 5CEA1283 Copy CRC 5CEA1283 Track not present in AccurateRip database Copy OK
Track 5 Filename D:\Temp\Benny Goodman - Featuring Charlie Christian 1939-1941\05 - Benny Goodman -Shivers.wav Pre-gap length 0:00:02.57 Peak level 61.0 % Track quality 100.0 % Test CRC EF081D6F Copy CRC EF081D6F Track not present in AccurateRip database Copy OK
Track 6 Filename D:\Temp\Benny Goodman - Featuring Charlie Christian 1939-1941\06 - Benny Goodman -AC,DC Current.wav Pre-gap length 0:00:02.55 Peak level 70.4 % Track quality 100.0 % Test CRC 64FB6818 Copy CRC 64FB6818 Track not present in AccurateRip database Copy OK
Track 7 Filename D:\Temp\Benny Goodman - Featuring Charlie Christian 1939-1941\07 - Benny Goodman -I'm Confessing (That I Love You).wav Pre-gap length 0:00:02.60 Peak level 69.7 % Track quality 100.0 % Test CRC F79ECEA8 Copy CRC F79ECEA8 Track not present in AccurateRip database Copy OK
Track 8 Filename D:\Temp\Benny Goodman - Featuring Charlie Christian 1939-1941\08 - Benny Goodman -The Shiek Of Araby.wav Pre-gap length 0:00:02.60 Peak level 92.9 % Track quality 100.0 % Test CRC 4AA26B4E Copy CRC 4AA26B4E Track not present in AccurateRip database Copy OK
Track 9 Filename D:\Temp\Benny Goodman - Featuring Charlie Christian 1939-1941\09 - Benny Goodman -Poor Butterfly.wav Pre-gap length 0:00:02.57 Peak level 82.9 % Track quality 100.0 % Test CRC DF8B13FA Copy CRC DF8B13FA Track not present in AccurateRip database Copy OK
Track 10 Filename D:\Temp\Benny Goodman - Featuring Charlie Christian 1939-1941\10 - Benny Goodman -I Surrender, Dear.wav Pre-gap length 0:00:02.48 Peak level 77.3 % Track quality 100.0 % Test CRC 237ED57D Copy CRC 237ED57D Track not present in AccurateRip database Copy OK
Track 11 Filename D:\Temp\Benny Goodman - Featuring Charlie Christian 1939-1941\11 - Benny Goodman -These Foolish Things.wav Pre-gap length 0:00:02.52 Peak level 78.9 % Track quality 100.0 % Test CRC D44423EB Copy CRC D44423EB Track not present in AccurateRip database Copy OK
Track 12 Filename D:\Temp\Benny Goodman - Featuring Charlie Christian 1939-1941\12 - Benny Goodman -Good Enough To Keep.wav Pre-gap length 0:00:02.60 Peak level 83.0 % Track quality 100.0 % Test CRC D55A61A8 Copy CRC D55A61A8 Track not present in AccurateRip database Copy OK
Track 13 Filename D:\Temp\Benny Goodman - Featuring Charlie Christian 1939-1941\13 - Benny Goodman -Breakfast Feud.wav Pre-gap length 0:00:02.50 Peak level 59.4 % Track quality 100.0 % Test CRC 6211FC95 Copy CRC 6211FC95 Track not present in AccurateRip database Copy OK
Track 14 Filename D:\Temp\Benny Goodman - Featuring Charlie Christian 1939-1941\14 - Benny Goodman -I Can't Gve You Anything But Love, Baby.wav Pre-gap length 0:00:02.55 Peak level 55.5 % Track quality 100.0 % Test CRC 188C6871 Copy CRC 188C6871 Track not present in AccurateRip database Copy OK
Track 15 Filename D:\Temp\Benny Goodman - Featuring Charlie Christian 1939-1941\15 - Benny Goodman -Gilly.wav Pre-gap length 0:00:02.10 Peak level 70.1 % Track quality 100.0 % Test CRC 5EB9DE45 Copy CRC 5EB9DE45 Track not present in AccurateRip database Copy OK
Track 16 Filename D:\Temp\Benny Goodman - Featuring Charlie Christian 1939-1941\16 - Benny Goodman -On The Alamo.wav Pre-gap length 0:00:02.50 Peak level 44.8 % Track quality 100.0 % Test CRC 7DABA040 Copy CRC 7DABA040 Track not present in AccurateRip database Copy OK
Track 17 Filename D:\Temp\Benny Goodman - Featuring Charlie Christian 1939-1941\17 - Benny Goodman -Gone With What Draft.wav Pre-gap length 0:00:02.53 Peak level 77.4 % Track quality 100.0 % Test CRC 2A3BB082 Copy CRC 2A3BB082 Track not present in AccurateRip database Copy OK
Track 18 Filename D:\Temp\Benny Goodman - Featuring Charlie Christian 1939-1941\18 - Benny Goodman -A Smo-O-O-Oth One.wav Pre-gap length 0:00:02.45 Peak level 78.0 % Track quality 100.0 % Test CRC ED38D79F Copy CRC ED38D79F Track not present in AccurateRip database Copy OK
None of the tracks are present in the AccurateRip database
No errors occurred
End of status report
<spoiler title="Содержание индексной карты (.CUE)"><pre>REM GENRE Swing
REM DISCID F70CF912
REM COMMENT "ExactAudioCopy v0.99pb3"
PERFORMER "Benny Goodman"
TITLE "Featuring Charlie Christian 1939-1941"
FILE "01 - Benny Goodman -Flying Home.wav" WAVE TRACK 01 AUDIO TITLE "Flying Home" PERFORMER "Benny Goodman" INDEX 01 00:00:00 TRACK 02 AUDIO TITLE "Stardust" PERFORMER "Benny Goodman" INDEX 00 03:15:17
FILE "02 - Benny Goodman -Stardust.wav" WAVE INDEX 01 00:00:00 TRACK 03 AUDIO TITLE "Memories Of You" PERFORMER "Benny Goodman" INDEX 00 03:14:35
FILE "03 - Benny Goodman -Memories Of You.wav" WAVE INDEX 01 00:00:00 TRACK 04 AUDIO TITLE "Soft Winds" PERFORMER "Benny Goodman" INDEX 00 03:10:60
FILE "04 - Benny Goodman -Soft Winds.wav" WAVE INDEX 01 00:00:00 TRACK 05 AUDIO TITLE "Shivers" PERFORMER "Benny Goodman" INDEX 00 02:28:38
FILE "05 - Benny Goodman -Shivers.wav" WAVE INDEX 01 00:00:00 TRACK 06 AUDIO TITLE "AC/DC Current" PERFORMER "Benny Goodman" INDEX 00 02:49:18
FILE "06 - Benny Goodman -AC,DC Current.wav" WAVE INDEX 01 00:00:00 TRACK 07 AUDIO TITLE "I'm Confessing (That I Love You)" PERFORMER "Benny Goodman" INDEX 00 02:47:32
FILE "07 - Benny Goodman -I'm Confessing (That I Love You).wav" WAVE INDEX 01 00:00:00 TRACK 08 AUDIO TITLE "The Shiek Of Araby" PERFORMER "Benny Goodman" INDEX 00 02:57:65
FILE "08 - Benny Goodman -The Shiek Of Araby.wav" WAVE INDEX 01 00:00:00 TRACK 09 AUDIO TITLE "Poor Butterfly" PERFORMER "Benny Goodman" INDEX 00 03:15:28
FILE "09 - Benny Goodman -Poor Butterfly.wav" WAVE INDEX 01 00:00:00 TRACK 10 AUDIO TITLE "I Surrender, Dear" PERFORMER "Benny Goodman" INDEX 00 02:50:15
FILE "10 - Benny Goodman -I Surrender, Dear.wav" WAVE INDEX 01 00:00:00 TRACK 11 AUDIO TITLE "These Foolish Things" PERFORMER "Benny Goodman" INDEX 00 02:59:30
FILE "11 - Benny Goodman -These Foolish Things.wav" WAVE INDEX 01 00:00:00 TRACK 12 AUDIO TITLE "Good Enough To Keep" PERFORMER "Benny Goodman" INDEX 00 03:11:73
FILE "12 - Benny Goodman -Good Enough To Keep.wav" WAVE INDEX 01 00:00:00 TRACK 13 AUDIO TITLE "Breakfast Feud" PERFORMER "Benny Goodman" INDEX 00 02:53:15
FILE "13 - Benny Goodman -Breakfast Feud.wav" WAVE INDEX 01 00:00:00 TRACK 14 AUDIO TITLE "I Can't Gve You Anything But Love, Baby" PERFORMER "Benny Goodman" INDEX 00 03:14:25
FILE "14 - Benny Goodman -I Can't Gve You Anything But Love, Baby.wav" WAVE INDEX 01 00:00:00 TRACK 15 AUDIO TITLE "Gilly" PERFORMER "Benny Goodman" INDEX 00 03:23:20
FILE "15 - Benny Goodman -Gilly.wav" WAVE INDEX 01 00:00:00 TRACK 16 AUDIO TITLE "On The Alamo" PERFORMER "Benny Goodman" INDEX 00 02:34:65
FILE "16 - Benny Goodman -On The Alamo.wav" WAVE INDEX 01 00:00:00 TRACK 17 AUDIO TITLE "Gone With What Draft" PERFORMER "Benny Goodman" INDEX 00 03:30:37
FILE "17 - Benny Goodman -Gone With What Draft.wav" WAVE INDEX 01 00:00:00 TRACK 18 AUDIO TITLE "A Smo-O-O-Oth One" PERFORMER "Benny Goodman" INDEX 00 02:41:60
FILE "18 - Benny Goodman -A Smo-O-O-Oth One.wav" WAVE INDEX 01 00:00:00
Приватный Нет (DHT включён)
Хэш 9CF3365BD0D7848C9C078C8BB6246989388CE81F
Размер 195.31 Мб (204,792,673 байт) » файлов: 22 [ Список файлов ]
Участники 0 раздают, 0 качают (0 участников всего)
Внешние участники Нет внешних трекеров
Скорость Сейчас никто не качает
00:43
47
RSS
Нет комментариев. Ваш будет первым!