Вы используете незарегистрированную версию компонента "Вкладки"!

Поиск

1921-1947 Ethel Waters - The Chronological Classics [6CD]

1921-1947 Ethel Waters - The Chronological Classics [6CD]
Стили:
Треклист:
Страна: США
Битрейт аудио: lossless
Продолжительность: 6:56:10
Наличие сканов в содержимом раздачи: да (кроме "1925-1926")
 
Ethel Waters - Переводчица с джазового
У Этель Уотерс несколько странная судьба в джазе. Сегодня ее имя, безусловно, фигурирует в истории жанра, но оно явно не освещено ярким светом, а находится несколько в полумраке. Почему? Ведь при жизни эта певица была весьма и весьма популярна. Автор сопроводительной статьи очередного альбома исторической серии “Timeless” Крис Эллис очень точен, когда утверждает, что “... она не подпадает целиком ни под одно из таких определений, как “блюзовая певица”, “джазовая певица”, “драматическая актриса”, “артистка кабаре” или “кинозвезда”. Она, тем не менее, все это в себе совмещала”. Именно универсализм принес ей славу при жизни, и он же помешал стать целиком “своей” в каком-то жанре. Тем не менее, ее заслуги перед джазом весьма существенны. В джазе она всю жизнь делала то, к чему пришел Луис Армстронг, уже став великим трубачом. Как вокалистка она всегда была своеобразной “переводчицей с джазового”, интерпретируя в свинговой манере популярные шлягеры своего времени и, наоборот, знакомя широкую, преимущественно белую публику с джазовыми стандартами. Альбом “Timeless” представляет широкую панораму песен и того, и другого рода, записанных ею в тридцатые годы в сопровождении выдающихся джазовых бэндов, в первую очередь оркестров Дюка Эллингтона и Бенни Гудмена.
К тому времени Этель была уже опытной певицей, ведь впервые она вышла на сцену в 17 лет. Так как она тогда была еще несовершеннолетней, то для оформления контракта ей пришлось передвинуть дату рождения на четыре года назад. Это породило большую путаницу в различных вариантах ее биографий. Крис Эллис приводит дату 31 октября 1896 года, ряд других источников, на мой взгляд, более близких к истине, называет 1900 год. Так или иначе, произошло это событие в небольшом городке Честер в Пенсильвании. Она не была желанным ребенком: в 12 лет ее мать жестоко изнасиловали, в результате чего Этель и появилась на свет. Знакомясь с биографией Этель Уотерс, вообще ощущаешь, что дыхание рабовладельческих времен совсем рядом: бабушка будущей звезды вышла замуж в 13 лет, причем деду еще пришлось выкупать ее из рабства. Кстати, сама Этель впервые вступила в фактический, правда, очень непродолжительный брак в том же возрасте. Высокой худющей девчонке (стройную фигуру она сохранила на всю жизнь) пришлось самой пробивать себе дорогу. Работа посудомойкой и горничной за три с четвертью доллара в неделю ее не слишком прельстила, и Этель выбрала то, о чем мечтала с раннего детства: сцену.
Первоначально Этель стала выступать в маленьких кочевых афроамериканских труппах, причем она не только и даже не столько пела, сколько танцевала. Вокальный же репертуар юной артистки отличался чрезвычайной пестротой: здесь были и блюзы, и баллады, и комические песенки. Чистый голос, отличная дикция, прекрасное чувство ритма помогали Уотерс приводить своими выступлениями в восторг непритязательную публику. Постепенно она становилась “гвоздем” шоу, а в довольно захудалом нью-йоркском кабачке “Edmond’s Cellar” она проработала почти четыре года уже со своей сольной программой. К 1921г. относятся и ее первые записи: сначала для “Cardinal Records”, а затем для “Black Swan”. Последняя фирма организовала и большое концертное турне певицы, причем сопровождающий ансамбль Этель возглавлял молодой Флетчер Хендерсон. Интересно, что, выступая в Атланте, Уотерс столкнулась с весьма негативным отношением к себе со стороны “императрицы блюза” Бесси Смит, которая ревниво отнеслась к успехам “выскочки с Севера” (много позже Этель столь же недоброжелательно будет реагировать на Билли Холидей).
В то же время нашлось двое людей, которые подсказали молодой исполнительнице верный путь к успеху. Опытный режиссер Эрл Дэнсер и пианист Лу Хенли, оценив ее и вокальные, и внешние данные, посоветовали Этель перейти преимущественно на исполнение модных шлягеров тех лет: это делало певицу интересной не только для афроамериканской, но и для белой публики. В 1925г. Уотерс дебютировала в престижном “белом” заведении: “Plantation Club” на Бродвее. Вскоре и в области звукозаписи произошли благоприятные перемены: певица перешла под опеку крупной фирмы “Columbia”, записывавшей ее, однако, на так называемых “расовых”, т. е. предназначенных для черной аудитории, пластинках.
Продолжая с успехом выступать в бродвейских ревю, в 1929г. Этель Уотерс неожиданно для многих прогремела на всю Америку и даже на весь мир в несколько иной сфере — разумеется, источником столь мгновенного и широкого успеха в те годы могло быть только кино. Знаменитая компания “Warner Bros.” выпустила на экраны первый полноцветный и одновременно звуковой фильм “On With The Show”, где Уотерс снялась в двух эпизодах, исполняя песни “Birmingham Bertha” и “Am I Blue?”. Пластинка с этими песнями, немедленно изданная “Columbia” уже вне “расовых серий”, где с Этель играли первоклассные белые музыканты, такие, к примеру, как братья Дорси, прекрасно разошлась, а “Am I Blue?” стала настоящим хитом. Этими двумя песнями и открывается диск “Timeless”.
Успешное европейское турне, новые бродвейские представления с участием Уотерс стимулировали боссов “Columbia” торопиться с “ковкой железа”. В 1929 - 1932 годах выходят новые хиты в исполнении Этель Уотерс: “Trav’lin All Alone”, “Please Don’t Talk About Me When I’m Gone” (под аккомпанемент септета с участием Томми Дорси, Гудмена, Венути и Ланга), “What Did I Do To Be So Black And Blue” (сочинение очень креативной авторской пары Фэтс Уоллер — Энди Разаф; Фэтса, думаю, представлять не надо, а Разаф — это на самом деле Разафинкиерефо, ни более ни менее как племянник последней королевы Мадагаскара: пути джаза неисповедимы). Записала Уотерс и песню “Porgy”, не имеющую никакого отношения к знаменитой опере Гершвина, но тематически связанную с тем же литературным первоисточником, драмой Дюбоза Хэйуорда. Все эти хиты представлены на диске, а “Porgy” — даже в двух версиях, 1930 и 1932 годов, причем последнюю Уотерс исполняет с оркестром Эллингтона.
С этим замечательным составом весной 1933г. Этель выступала в знаменитом “Cotton Club”, где впервые прозвучал знаменитый хит “Stormy Weather”. Этот год, наверное, был самым удачным во всем десятилетии — золотом времени для Этель Уотерс, когда фортуна, казалось, делала все, чтобы обеспечить ей “режим наибольшего благоприятствования”. Осенью того же года в “The Music Box Theathre” проходит премьера нового ревю от некоронованного короля американской поп-музыки Ирвина Берлина — “As Thousand Cheer”. Уотерс, единственная афроамериканка, блистает в нем наряду с белыми звездами Клифтоном Уэббом и Мэрилин Миллер, а новый шлягер из этого ревю “Heat Wave”, записанный с участием Бенни Гудмена, расходится, как горячие пирожки. Есть на диске и еще несколько песен Уотерс, которые она исполняла в 1933 — 34 гг. с оркестром этого “короля свинга”. Голливуд также не забывал о певице: на протяжении тридцатых годов она продолжала быть частой гостьей и на съемочных площадках.
Карьера Этель Уотерс не оборвалась внезапно, она продолжала петь, выступать на сцене и сниматься в кино и в сороковые, и в пятидесятые годы, с большим или меньшим успехом. Однако в целом это было уже движением по нисходящей (кроме кино, где она была занята в весьма удачных лентах “Cabin In The Sky” (1943) и “Pinky” (1949)). Этель дожила до весьма преклонного возраста и ушла из жизни в сентябре 1977 года. Но альбом “Timeless” не уводит нас так далеко. Он прощается с Этель Уотерс на рубеже сороковых годов, когда она оставалась в зените славы. Последние треки диска — это два маленьких шедевра Хоуги Кармайкла: “Georgia On My Mind” и менее известный “Old Man Harlem”, записанные певицей в августе 39-го. Думаю, прослушав этот альбом, вы сможете по достоинству оценить мастерство исполнительницы, научившей американскую поп-музыку пульсировать в ритмах свинга. Лена Хорн, Конни Босуэлл и многие другие певицы шли уже по дороге, проторенной Этель Уотерс...
По материалам “Timeless Records” подготовил Леонид АУСКЕРН
© 2007 Jazz-Квадрат
(nestor.minsk.by)
 
 
Ethel Waters - 1921-1923 (The Chronological Classics)
Ethel Waters - 1921-1923 (The Chronological Classics)
Страна-производитель диска: Франция
Год издания: 1994
Издатель (лейбл): Classics
Номер по каталогу: 796
Аудиокодек: FLAC (*.flac)
Тип рипа: image+.cue
Битрейт аудио: lossless
Продолжительность: 68:54
Источник (релизер): Mazeppa (hqshare)
Треклист:
01. The New York Glide (3:05)
02. At the New Jump Steady Ball (3:29)
03. Oh Daddy (3:23)
04. Down Home Blues (3:23)
05. One Man Nan (2:57)
06. There'll Be Some Changes Made (3:26)
07. Dying with the Blues (2:57)
08. Kiss Your Pretty Baby Nice (3:10)
09. 'Frisco Jazz Band Blues (3:29)
10. Royal Garden Blues (3:14)
11. Bugle Blues (Introducing Old Miss Blues) (2:39)
12. Jazzin' Babies Blues (3:10)
13. Kind Lovin' Blues (3:05)
14. Georgia Blues (3:16)
15. That Da Da Strain (2:57)
16. Tiger Rag (3:11)
17. Pacific Coast Blues (3:36)
18. At the New Jump Steady Ball (2:55)
19. Oh Joe, Play That Trombone (2:40)
20. Memphis Man (2:46)
21. Midnight Blues (3:04)
22. Brown Baby (2:59)
 
 
Review by Scott Yanow
Ethel Waters was one of the few singers from the early '20s whose early recordings are still quite listenable. This CD from the Classics label has her first 22 sides (many previously rare including five interesting instrumentals by Waters's band) and, although not on the same level as her performances from a few years later, the music is quite good for the time period. The sidemen are mostly obscure but include pianist Fletcher Henderson and cornetists Gus Aiken and Joe Smith with the highlights being "The New York Glide," "Down Home Blues," "There'll Be Some Changes Made" and "Midnight Blues."
 
 
Лог создания рипа
Exact Audio Copy V0.99 prebeta 4 from 23. January 2008
EAC extraction logfile from 10. February 2008, 12:15
Ethel Waters / Ethel Waters 1921-1923
Used drive  : PLEXTOR DVDR   PX-800A   Adapter: 1  ID: 0
Read mode               : Secure
Utilize accurate stream : Yes
Defeat audio cache      : Yes
Make use of C2 pointers : No
Read offset correction                      : 48
Overread into Lead-In and Lead-Out          : No
Fill up missing offset samples with silence : Yes
Delete leading and trailing silent blocks   : No
Null samples used in CRC calculations       : Yes
Used interface                              : Installed external ASPI interface
Used output format              : User Defined Encoder
Selected bitrate                : 320 kBit/s
Quality                         : High
Add ID3 tag                     : No
Command line compressor         : C:\Program Files\FLAC\flac.exe
Additional command line options :  -V -8 -T "artist=%a" -T "title=%t" -T "album=%g" -T "date=%y" -T "tracknumber=%n" -T "genre=%m" %s
TOC of the extracted CD
     Track |   Start  |  Length  | Start sector | End sector
    ---------------------------------------------------------
        1  |  0:00.32 |  3:05.35 |        32    |    13941
        2  |  3:05.67 |  3:28.70 |     13942    |    29611
        3  |  6:34.62 |  3:23.20 |     29612    |    44856
        4  |  9:58.07 |  3:22.70 |     44857    |    60076
        5  | 13:21.02 |  2:56.40 |     60077    |    73316
        6  | 16:17.42 |  3:25.53 |     73317    |    88744
        7  | 19:43.20 |  2:56.40 |     88745    |   101984
        8  | 22:39.60 |  3:10.32 |    101985    |   116266
        9  | 25:50.17 |  3:29.25 |    116267    |   131966
       10  | 29:19.42 |  3:14.20 |    131967    |   146536
       11  | 32:33.62 |  2:39.30 |    146537    |   158491
       12  | 35:13.17 |  3:10.13 |    158492    |   172754
       13  | 38:23.30 |  3:05.35 |    172755    |   186664
       14  | 41:28.65 |  3:16.32 |    186665    |   201396
       15  | 44:45.22 |  2:57.28 |    201397    |   214699
       16  | 47:42.50 |  3:10.57 |    214700    |   229006
       17  | 50:53.32 |  3:35.50 |    229007    |   245181
       18  | 54:29.07 |  2:55.13 |    245182    |   258319
       19  | 57:24.20 |  2:39.67 |    258320    |   270311
       20  | 60:04.12 |  2:46.15 |    270312    |   282776
       21  | 62:50.27 |  3:04.25 |    282777    |   296601
       22  | 65:54.52 |  2:59.25 |    296602    |   310051
Range status and errors
Selected range
     Filename D:\WinRar\Ethel Waters - 1921-1923 (Chronogical Classics)[FLAC Full Scans]\Ethel Waters - Ethel Waters 1921-1923.wav
     Peak level 99.9 %
     Range quality 100.0 %
     Test CRC A6212D43
     Copy CRC A6212D43
     Copy OK
No errors occurred
End of status report
 
 
Содержание индексной карты (.CUE)
REM GENRE Jazz
REM DATE 1994
REM DISCID 4A102616
REM COMMENT "ExactAudioCopy v0.99pb4"
PERFORMER "Ethel Waters"
TITLE "1921-1923"
FILE "Ethel Waters - 1921-1923.wav" WAVE
  TRACK 01 AUDIO
    TITLE "The New York Glide"
    PERFORMER "Ethel Waters"
    INDEX 00 00:00:00
    INDEX 01 00:00:32
  TRACK 02 AUDIO
    TITLE "At the New Jump Steady Ball"
    PERFORMER "Ethel Waters"
    INDEX 00 03:04:67
    INDEX 01 03:05:67
  TRACK 03 AUDIO
    TITLE "Oh Daddy"
    PERFORMER "Ethel Waters"
    INDEX 00 06:33:17
    INDEX 01 06:34:62
  TRACK 04 AUDIO
    TITLE "Down Home Blues"
    PERFORMER "Ethel Waters"
    INDEX 00 09:56:20
    INDEX 01 09:58:07
  TRACK 05 AUDIO
    TITLE "One Man Nan"
    PERFORMER "Ethel Waters"
    INDEX 00 13:19:62
    INDEX 01 13:21:02
  TRACK 06 AUDIO
    TITLE "There'll Be Some Changes Made"
    PERFORMER "Ethel Waters"
    INDEX 00 16:16:32
    INDEX 01 16:17:42
  TRACK 07 AUDIO
    TITLE "Dying with the Blues"
    PERFORMER "Ethel Waters"
    INDEX 00 19:41:20
    INDEX 01 19:43:20
  TRACK 08 AUDIO
    TITLE "Kiss Your Pretty Baby Nice"
    PERFORMER "Ethel Waters"
    INDEX 00 22:38:02
    INDEX 01 22:39:60
  TRACK 09 AUDIO
    TITLE "'Frisco Jazz Band Blues"
    PERFORMER "Ethel Waters"
    INDEX 00 25:48:60
    INDEX 01 25:50:17
  TRACK 10 AUDIO
    TITLE "Royal Garden Blues"
    PERFORMER "Ethel Waters"
    INDEX 00 29:17:45
    INDEX 01 29:19:42
  TRACK 11 AUDIO
    TITLE "Bugle Blues (Introducing Old Miss Blues)"
    PERFORMER "Ethel Waters"
    INDEX 00 32:31:60
    INDEX 01 32:33:62
  TRACK 12 AUDIO
    TITLE "Jazzin' Babies Blues"
    PERFORMER "Ethel Waters"
    INDEX 00 35:12:00
    INDEX 01 35:13:17
  TRACK 13 AUDIO
    TITLE "Kinda Lovin' Blues"
    PERFORMER "Ethel Waters"
    INDEX 00 38:21:17
    INDEX 01 38:23:30
  TRACK 14 AUDIO
    TITLE "Georgia Blues"
    PERFORMER "Ethel Waters"
    INDEX 00 41:27:42
    INDEX 01 41:28:65
  TRACK 15 AUDIO
    TITLE "That Da Da Strain"
    PERFORMER "Ethel Waters"
    INDEX 00 44:43:35
    INDEX 01 44:45:22
  TRACK 16 AUDIO
    TITLE "Tiger Rag"
    PERFORMER "Ethel Waters"
    INDEX 00 47:40:40
    INDEX 01 47:42:50
  TRACK 17 AUDIO
    TITLE "Pacific Coast Blues"
    PERFORMER "Ethel Waters"
    INDEX 00 50:51:30
    INDEX 01 50:53:32
  TRACK 18 AUDIO
    TITLE "At the New Jump Steady Ball"
    PERFORMER "Ethel Waters"
    INDEX 00 54:27:57
    INDEX 01 54:29:07
  TRACK 19 AUDIO
    TITLE "Oh Joe, Play That Trombone"
    PERFORMER "Ethel Waters"
    INDEX 00 57:22:15
    INDEX 01 57:24:20
  TRACK 20 AUDIO
    TITLE "Memphis Man"
    PERFORMER "Ethel Waters"
    INDEX 00 60:02:17
    INDEX 01 60:04:12
  TRACK 21 AUDIO
    TITLE "Midnight Blues"
    PERFORMER "Ethel Waters"
    INDEX 00 62:48:32
    INDEX 01 62:50:27
  TRACK 22 AUDIO
    TITLE "Brown Baby"
    PERFORMER "Ethel Waters"
    INDEX 00 65:52:42
    INDEX 01 65:54:52
 
 
Отчет CUETools
[CUETools log; Date: 14.09.2013 16:58:13; Version: 2.1.4]
Pregap length 00:00:32.
[CTDB TOCID: cAN_b0xxZHnVmlHPmbqEWhHeneY-] disk not present in database.
[AccurateRip ID: 003771bf-03733e26-4a102616] found.
Track   [  CRC   |   V2   ] Status
 01     [c111d7de|9db094ef] (0+0/0) No match
 02     [1cd374f6|58cafdb1] (0+0/0) No match
 03     [4110cfc9|70bf2921] (0+0/0) No match
 04     [3f14e624|8742e2b7] (0+0/0) No match
 05     [362316bc|8384fa2e] (0+0/0) No match
 06     [2a4fa858|5451438b] (0+0/0) No match
 07     [4d30700e|f59656f2] (0+0/0) No match
 08     [6bed2acf|b49852eb] (0+0/0) No match
 09     [4e7d3748|7073da66] (0+0/0) No match
 10     [58e00329|9f4e2aff] (0+0/0) No match
 11     [723c0c9b|37bb8924] (0+0/0) No match
 12     [fd167981|109ecc86] (0+0/0) No match
 13     [41313449|6251abd9] (0+0/0) No match
 14     [aa27a607|6a4b9bdd] (0+0/0) No match
 15     [c640f4d2|f49d251f] (0+0/0) No match
 16     [b082f4ac|9eb4e438] (0+0/0) No match
 17     [b743ac08|bffbe06c] (0+0/0) No match
 18     [6f4da5c0|256b2809] (0+0/0) No match
 19     [e1315706|ca78e065] (0+0/0) No match
 20     [9a9a32c1|c2a6be72] (0+0/0) No match
 21     [fe197911|cdb5319b] (0+0/0) No match
 22     [1390fc81|462d351a] (0+0/0) No match
Offsetted by -6:
 01     [93c15755] (0/0) No match (V2 was not tested)
 02     [4a1ae2d1] (0/0) No match (V2 was not tested)
 03     [e6971213] (0/0) No match (V2 was not tested)
 04     [4bda0faa] (0/0) No match (V2 was not tested)
 05     [8eb63e4f] (0/0) No match (V2 was not tested)
 06     [b178c701] (0/0) No match (V2 was not tested)
 07     [0a8b8890] (0/0) No match (V2 was not tested)
 08     [9bf37ee3] (0/0) No match (V2 was not tested)
 09     [56b40ac6] (0/0) No match (V2 was not tested)
 10     [5b95658d] (0/0) No match (V2 was not tested)
 11     [cec7884f] (0/0) No match (V2 was not tested)
 12     [7a2b5159] (0/0) No match (V2 was not tested)
 13     [d25a9fc6] (0/0) No match (V2 was not tested)
 14     [9eaffcbb] (0/0) No match (V2 was not tested)
 15     [3a4c2099] (0/0) No match (V2 was not tested)
 16     [d66dae57] (0/0) No match (V2 was not tested)
 17     [540b8727] (0/0) No match (V2 was not tested)
 18     [1cb73b1f] (0/0) No match (V2 was not tested)
 19     [1a22c01b] (0/0) No match (V2 was not tested)
 20     [38f1b4d8] (0/0) No match (V2 was not tested)
 21     [631cbb86] (0/0) No match (V2 was not tested)
 22     [93806481] (0/0) No match (V2 was not tested)
Track Peak [ CRC32  ] [W/O NULL] [  LOG   ]
 --   99,9 [A6212D43] [17F9B5F9]   CRC32
 01   95,5 [0B2B478C] [08A68218]
 02   99,4 [D524459E] [E123FFE7]
 03   85,8 [3629C755] [E5100E38]
 04   84,4 [2D344F50] [FAD367FB]
 05   94,0 [C1DDC64E] [02D21F16]
 06   77,7 [3AFE2128] [28030126]
 07   95,6 [39EC7268] [9A19607A]
 08   81,2 [ADA38137] [38851F29]
 09   99,9 [C6C37682] [B94D5DBA]
 10   74,5 [E5D04BE5] [AF8BDDEC]
 11   84,6 [D5FBC165] [C9DEA486]
 12   65,4 [AB0CE67D] [BE16247B]
 13   67,6 [0322B7FD] [7DBD2BE7]
 14   81,9 [105DF0B8] [7A5D31B7]
 15   81,8 [BB57B6D7] [C31D8AB1]
 16   82,1 [AA18633E] [343C7A7B]
 17   79,4 [97E44795] [A09876C2]
 18   93,9 [3105386D] [058D11B3]
 19   93,6 [0E405A60] [146285BA]
 20   73,8 [18C13402] [D861FF50]
 21   73,8 [60B64844] [AA77F987]
 22   66,0 [A18552C2] [2D723C3A]
 
 
Ethel Waters - 1925-1926 (The Chronological Classics)
Ethel Waters - 1925-1926 (The Chronological Classics)
Страна-производитель диска: Франция
Год издания: 1992
Издатель (лейбл): Classics
Номер по каталогу: 672
Аудиокодек: FLAC (*.flac)
Тип рипа: tracks+.cue
Битрейт аудио: lossless
Продолжительность: 70:08
Источник (релизер): ColoraturaWalrus (what)
Треклист:
01. Loud Speakin' Papa (You'd Better Speak Easy to Me) (3:03)
02. You Can't Do What My Last Man Did (3:05)
03. Pickaninny Blues (3:07)
04. Sweet Man (2:52)
05. Dinah (3:17)
06. No Man's Mamma (3:08)
07. Tell 'Em About Me (3:07)
08. Maybe Not at All (3:15)
09. Shake That Thing (3:21)
10. I've Found a New Baby (3:02)
11. Make Me a Pallet on the Floor (2:55)
12. Bring Your Greenbacks (2:53)
13. After All These Years (3:09)
14. Throw Dirt in Your Face (2:56)
15. I'm Saving It All for You (2:52)
16. Refrigeratin' Papa (Mama's Gonna Warm You Up) (3:25)
17. If You Can't Hold the Man You Love (2:51)
18. Satisfyin' Papa (2:58)
19. Sugar (3:14)
20. I Wonder What's Become of Joe? (2:51)
21. You'll Want Me Back (3:11)
22. Heebie Jeebies (2:49)
23. Ev'rybody Mess Aroun' (2:47)
 
 
Review by Scott Yanow
This CD in the Classics Ethel Waters series contains plenty of gems, including "You Can't Do What My Last Man Did," the original version of "Dinah," "Shake That Thing," "I've Found a New Baby" (which has some memorable cornet playing from Joe Smith), "Sugar," and "Heebie Jeebies." On "Maybe Not at All," Waters does eerie imitations of both Bessie Smith and Clara Smith. She had few competitors as a jazz singer during this era, and the mostly intimate recordings (12 of the 23 tracks find her backed by just a pianist) feature Waters at her best.
 
 
Лог создания рипа
Exact Audio Copy V1.0 beta 3 from 29. August 2011
EAC extraction logfile from 24. October 2014, 22:22
Ethel Waters / Ethel Waters 1925-1926
Used drive  : HL-DT-STDVD+-RW GT32N   Adapter: 0  ID: 1
Read mode               : Secure
Utilize accurate stream : Yes
Defeat audio cache      : Yes
Make use of C2 pointers : No
Read offset correction                      : 103
Overread into Lead-In and Lead-Out          : No
Fill up missing offset samples with silence : Yes
Delete leading and trailing silent blocks   : No
Null samples used in CRC calculations       : Yes
Used interface                              : Native Win32 interface for Win NT & 2000
Gap handling                                : Appended to previous track
Used output format              : User Defined Encoder
Selected bitrate                : 1024 kBit/s
Quality                         : High
Add ID3 tag                     : No
Command line compressor         : C:\Program Files (x86)\Exact Audio Copy\Flac\flac.exe
Additional command line options : -8 -V -T "ARTIST=%artist%" -T "TITLE=%title%" -T "ALBUM=%albumtitle%" -T "DATE=%year%" -T "TRACKNUMBER=%tracknr%" -T "GENRE=%genre%" -T "PERFORMER=%albuminterpret%" -T "COMPOSER=%composer%" %haslyrics%--tag-from-file=LYRICS="%lyricsfile%"%haslyrics% -T "ALBUMARTIST=%albumartist%" -T "DISCNUMBER=%cdnumber%" -T "TOTALDISCS=%totalcds%" -T "TOTALTRACKS=%numtracks%" -T "COMMENT=%comment%" %source% -o %dest%
TOC of the extracted CD
     Track |   Start  |  Length  | Start sector | End sector
    ---------------------------------------------------------
        1  |  0:00.32 |  3:03.18 |        32    |    13774
        2  |  3:03.50 |  3:04.65 |     13775    |    27639
        3  |  6:08.40 |  3:07.02 |     27640    |    41666
        4  |  9:15.42 |  2:51.45 |     41667    |    54536
        5  | 12:07.12 |  3:16.55 |     54537    |    69291
        6  | 15:23.67 |  3:08.18 |     69292    |    83409
        7  | 18:32.10 |  3:07.00 |     83410    |    97434
        8  | 21:39.10 |  3:15.22 |     97435    |   112081
        9  | 24:54.32 |  3:20.43 |    112082    |   127124
       10  | 28:15.00 |  3:02.22 |    127125    |   140796
       11  | 31:17.22 |  2:55.30 |    140797    |   153951
       12  | 34:12.52 |  2:52.53 |    153952    |   166904
       13  | 37:05.30 |  3:08.52 |    166905    |   181056
       14  | 40:14.07 |  2:55.43 |    181057    |   194224
       15  | 43:09.50 |  2:52.12 |    194225    |   207136
       16  | 46:01.62 |  3:25.33 |    207137    |   222544
       17  | 49:27.20 |  2:50.72 |    222545    |   235366
       18  | 52:18.17 |  2:57.65 |    235367    |   248706
       19  | 55:16.07 |  3:14.08 |    248707    |   263264
       20  | 58:30.15 |  2:51.27 |    263265    |   276116
       21  | 61:21.42 |  3:11.20 |    276117    |   290461
       22  | 64:32.62 |  2:48.70 |    290462    |   303131
       23  | 67:21.57 |  2:47.10 |    303132    |   315666
Track  1
     Filename C:\EAC-Rips\Ethel Waters - Ethel Waters 1925-1926 (1992) [672] - FLAC\01 - Loud Speakin' Papa.wav
     Pre-gap length  0:00:02.42
     Peak level 87.0 %
     Extraction speed 1.0 X
     Track quality 99.9 %
     Test CRC 5DEA113F
     Copy CRC 5DEA113F
     Track not present in AccurateRip database
     Copy OK
Track  2
     Filename C:\EAC-Rips\Ethel Waters - Ethel Waters 1925-1926 (1992) [672] - FLAC\02 - You Can't Do What My Last Man Did.wav
     Pre-gap length  0:00:01.50
     Peak level 87.4 %
     Extraction speed 1.3 X
     Track quality 100.0 %
     Test CRC 945B994D
     Copy CRC 945B994D
     Track not present in AccurateRip database
     Copy OK
Track  3
     Filename C:\EAC-Rips\Ethel Waters - Ethel Waters 1925-1926 (1992) [672] - FLAC\03 - Pickininny Blues.wav
     Pre-gap length  0:00:01.44
     Peak level 76.6 %
     Extraction speed 1.3 X
     Track quality 100.0 %
     Test CRC 13266709
     Copy CRC 13266709
     Track not present in AccurateRip database
     Copy OK
Track  4
     Filename C:\EAC-Rips\Ethel Waters - Ethel Waters 1925-1926 (1992) [672] - FLAC\04 - Sweet Man.wav
     Pre-gap length  0:00:01.40
     Peak level 99.7 %
     Extraction speed 1.4 X
     Track quality 100.0 %
     Test CRC 679C67E1
     Copy CRC 679C67E1
     Track not present in AccurateRip database
     Copy OK
Track  5
     Filename C:\EAC-Rips\Ethel Waters - Ethel Waters 1925-1926 (1992) [672] - FLAC\05 - Dinah.wav
     Pre-gap length  0:00:00.96
     Peak level 72.8 %
     Extraction speed 1.5 X
     Track quality 100.0 %
     Test CRC 72350336
     Copy CRC 72350336
     Track not present in AccurateRip database
     Copy OK
Track  6
     Filename C:\EAC-Rips\Ethel Waters - Ethel Waters 1925-1926 (1992) [672] - FLAC\06 - No Man's Mama.wav
     Pre-gap length  0:00:01.33
     Peak level 88.9 %
     Extraction speed 1.3 X
     Track quality 99.9 %
     Test CRC 9AA81EC5
     Copy CRC 9AA81EC5
     Track not present in AccurateRip database
     Copy OK
Track  7
     Filename C:\EAC-Rips\Ethel Waters - Ethel Waters 1925-1926 (1992) [672] - FLAC\07 - Tell 'Em About Me.wav
     Pre-gap length  0:00:01.30
     Peak level 87.8 %
     Extraction speed 1.6 X
     Track quality 100.0 %
     Test CRC B4573933
     Copy CRC B4573933
     Track not present in AccurateRip database
     Copy OK
Track  8
     Filename C:\EAC-Rips\Ethel Waters - Ethel Waters 1925-1926 (1992) [672] - FLAC\08 - Maybe Not At All.wav
     Pre-gap length  0:00:01.24
     Peak level 67.1 %
     Extraction speed 1.7 X
     Track quality 100.0 %
     Test CRC EEA4E190
     Copy CRC EEA4E190
     Track not present in AccurateRip database
     Copy OK
Track  9
     Filename C:\EAC-Rips\Ethel Waters - Ethel Waters 1925-1926 (1992) [672] - FLAC\09 - Shake That Thing.wav
     Pre-gap length  0:00:01.49
     Peak level 75.2 %
     Extraction speed 1.8 X
     Track quality 100.0 %
     Test CRC 6216499C
     Copy CRC 6216499C
     Track not present in AccurateRip database
     Copy OK
Track 10
     Filename C:\EAC-Rips\Ethel Waters - Ethel Waters 1925-1926 (1992) [672] - FLAC\10 - I've Found A New Baby.wav
     Pre-gap length  0:00:01.37
     Peak level 76.3 %
     Extraction speed 1.8 X
     Track quality 100.0 %
     Test CRC A2149F3C
     Copy CRC A2149F3C
     Track not present in AccurateRip database
     Copy OK
Track 11
     Filename C:\EAC-Rips\Ethel Waters - Ethel Waters 1925-1926 (1992) [672] - FLAC\11 - Make Me A Pallet On The Floor.wav
     Pre-gap length  0:00:01.16
     Peak level 66.6 %
     Extraction speed 1.9 X
     Track quality 100.0 %
     Test CRC 4A910695
     Copy CRC 4A910695
     Track not present in AccurateRip database
     Copy OK
Track 12
     Filename C:\EAC-Rips\Ethel Waters - Ethel Waters 1925-1926 (1992) [672] - FLAC\12 - Bring Your Greenbacks.wav
     Pre-gap length  0:00:01.13
     Peak level 77.8 %
     Extraction speed 2.0 X
     Track quality 100.0 %
     Test CRC 4BC5EBD5
     Copy CRC 4BC5EBD5
     Track not present in AccurateRip database
     Copy OK
Track 13
     Filename C:\EAC-Rips\Ethel Waters - Ethel Waters 1925-1926 (1992) [672] - FLAC\13 - After All These Years.wav
     Pre-gap length  0:00:01.64
     Peak level 74.9 %
     Extraction speed 2.0 X
     Track quality 100.0 %
     Test CRC C6B8D77B
     Copy CRC C6B8D77B
     Track not present in AccurateRip database
     Copy OK
Track 14
     Filename C:\EAC-Rips\Ethel Waters - Ethel Waters 1925-1926 (1992) [672] - FLAC\14 - Throw Dirt In Your Face.wav
     Pre-gap length  0:00:01.80
     Peak level 60.5 %
     Extraction speed 2.0 X
     Track quality 100.0 %
     Test CRC 6DF59D50
     Copy CRC 6DF59D50
     Track not present in AccurateRip database
     Copy OK
Track 15
     Filename C:\EAC-Rips\Ethel Waters - Ethel Waters 1925-1926 (1992) [672] - FLAC\15 - I'm Saving It All For You.wav
     Pre-gap length  0:00:01.97
     Peak level 80.4 %
     Extraction speed 2.1 X
     Track quality 100.0 %
     Test CRC 64CCCFEE
     Copy CRC 64CCCFEE
     Track not present in AccurateRip database
     Copy OK
Track 16
     Filename C:\EAC-Rips\Ethel Waters - Ethel Waters 1925-1926 (1992) [672] - FLAC\16 - Refrigeratin' Papa.wav
     Pre-gap length  0:00:01.66
     Peak level 75.0 %
     Extraction speed 2.2 X
     Track quality 100.0 %
     Test CRC 4E80697F
     Copy CRC 4E80697F
     Track not present in AccurateRip database
     Copy OK
Track 17
     Filename C:\EAC-Rips\Ethel Waters - Ethel Waters 1925-1926 (1992) [672] - FLAC\17 - If You Can't Hold The Man You Love.wav
     Pre-gap length  0:00:01.33
     Peak level 80.9 %
     Extraction speed 1.9 X
     Track quality 99.9 %
     Test CRC B1E60242
     Copy CRC B1E60242
     Track not present in AccurateRip database
     Copy OK
Track 18
     Filename C:\EAC-Rips\Ethel Waters - Ethel Waters 1925-1926 (1992) [672] - FLAC\18 - Satisfyin' Papa.wav
     Pre-gap length  0:00:01.09
     Peak level 64.7 %
     Extraction speed 2.3 X
     Track quality 100.0 %
     Test CRC B23276CA
     Copy CRC B23276CA
     Track not present in AccurateRip database
     Copy OK
Track 19
     Filename C:\EAC-Rips\Ethel Waters - Ethel Waters 1925-1926 (1992) [672] - FLAC\19 - Sugar.wav
     Pre-gap length  0:00:01.29
     Peak level 82.4 %
     Extraction speed 2.3 X
     Track quality 100.0 %
     Test CRC E354151A
     Copy CRC E354151A
     Track not present in AccurateRip database
     Copy OK
Track 20
     Filename C:\EAC-Rips\Ethel Waters - Ethel Waters 1925-1926 (1992) [672] - FLAC\20 - I Wonder What's Become Of Joe.wav
     Pre-gap length  0:00:02.44
     Peak level 64.3 %
     Extraction speed 2.3 X
     Track quality 100.0 %
     Test CRC 7ADD9D2D
     Copy CRC 7ADD9D2D
     Track not present in AccurateRip database
     Copy OK
Track 21
     Filename C:\EAC-Rips\Ethel Waters - Ethel Waters 1925-1926 (1992) [672] - FLAC\21 - You'll Want Me Back.wav
     Pre-gap length  0:00:02.36
     Peak level 83.9 %
     Extraction speed 2.4 X
     Track quality 100.0 %
     Test CRC 1CED1FD1
     Copy CRC 1CED1FD1
     Track not present in AccurateRip database
     Copy OK
Track 22
     Filename C:\EAC-Rips\Ethel Waters - Ethel Waters 1925-1926 (1992) [672] - FLAC\22 - Heebie Jeebies.wav
     Pre-gap length  0:00:01.96
     Peak level 95.3 %
     Extraction speed 2.4 X
     Track quality 100.0 %
     Test CRC 7CB119CB
     Copy CRC 7CB119CB
     Track not present in AccurateRip database
     Copy OK
Track 23
     Filename C:\EAC-Rips\Ethel Waters - Ethel Waters 1925-1926 (1992) [672] - FLAC\23 - Ev'rybody Mess Aroun'.wav
     Pre-gap length  0:00:01.82
     Peak level 73.8 %
     Extraction speed 2.4 X
     Track quality 100.0 %
     Test CRC E87CB5DD
     Copy CRC E87CB5DD
     Track not present in AccurateRip database
     Copy OK
None of the tracks are present in the AccurateRip database
No errors occurred
End of status report
==== Log checksum B3A954A2333706CB08AA7F23A9F174EA85CABAFC826F435C31476F036DF3501A ====
 
 
Содержание индексной карты (.CUE)
REM GENRE Jazz
REM DATE 1992
REM DISCID 57107017
REM COMMENT "ExactAudioCopy v1.0b3"
PERFORMER "Ethel Waters"
TITLE "1925-1926"
FILE "01 - Loud Speakin' Papa (You'd Better Speak Easy to Me).wav" WAVE
  TRACK 01 AUDIO
    TITLE "Loud Speakin' Papa (You'd Better Speak Easy to Me)"
    PERFORMER "Ethel Waters"
    PREGAP 00:00:32
    INDEX 01 00:00:00
  TRACK 02 AUDIO
    TITLE "You Can't Do What My Last Man Did"
    PERFORMER "Ethel Waters"
    INDEX 00 03:01:55
FILE "02 - You Can't Do What My Last Man Did.wav" WAVE
    INDEX 01 00:00:00
  TRACK 03 AUDIO
    TITLE "Pickaninny Blues"
    PERFORMER "Ethel Waters"
    INDEX 00 03:03:32
FILE "03 - Pickaninny Blues.wav" WAVE
    INDEX 01 00:00:00
  TRACK 04 AUDIO
    TITLE "Sweet Man"
    PERFORMER "Ethel Waters"
    INDEX 00 03:05:47
FILE "04 - Sweet Man.wav" WAVE
    INDEX 01 00:00:00
  TRACK 05 AUDIO
    TITLE "Dinah"
    PERFORMER "Ethel Waters"
    INDEX 00 02:50:48
FILE "05 - Dinah.wav" WAVE
    INDEX 01 00:00:00
  TRACK 06 AUDIO
    TITLE "No Man's Mamma"
    PERFORMER "Ethel Waters"
    INDEX 00 03:15:30
FILE "06 - No Man's Mamma.wav" WAVE
    INDEX 01 00:00:00
  TRACK 07 AUDIO
    TITLE "Tell 'Em About Me"
    PERFORMER "Ethel Waters"
    INDEX 00 03:06:70
FILE "07 - Tell 'Em About Me.wav" WAVE
    INDEX 01 00:00:00
  TRACK 08 AUDIO
    TITLE "Maybe Not at All"
    PERFORMER "Ethel Waters"
    INDEX 00 03:05:57
FILE "08 - Maybe Not at All.wav" WAVE
    INDEX 01 00:00:00
  TRACK 09 AUDIO
    TITLE "Shake That Thing"
    PERFORMER "Ethel Waters"
    INDEX 00 03:13:60
FILE "09 - Shake That Thing.wav" WAVE
    INDEX 01 00:00:00
  TRACK 10 AUDIO
    TITLE "I've Found a New Baby"
    PERFORMER "Ethel Waters"
    INDEX 00 03:19:15
FILE "10 - I've Found a New Baby.wav" WAVE
    INDEX 01 00:00:00
  TRACK 11 AUDIO
    TITLE "Make Me a Pallet on the Floor"
    PERFORMER "Ethel Waters"
    INDEX 00 03:01:10
FILE "11 - Make Me a Pallet on the Floor.wav" WAVE
    INDEX 01 00:00:00
  TRACK 12 AUDIO
    TITLE "Bring Your Greenbacks"
    PERFORMER "Ethel Waters"
    INDEX 00 02:54:20
FILE "12 - Bring Your Greenbacks.wav" WAVE
    INDEX 01 00:00:00
  TRACK 13 AUDIO
    TITLE "After All These Years"
    PERFORMER "Ethel Waters"
    INDEX 00 02:51:05
FILE "13 - After All These Years.wav" WAVE
    INDEX 01 00:00:00
  TRACK 14 AUDIO
    TITLE "Throw Dirt in Your Face"
    PERFORMER "Ethel Waters"
    INDEX 00 03:06:67
FILE "14 - Throw Dirt in Your Face.wav" WAVE
    INDEX 01 00:00:00
  TRACK 15 AUDIO
    TITLE "I'm Saving It All for You"
    PERFORMER "Ethel Waters"
    INDEX 00 02:53:45
FILE "15 - I'm Saving It All for You.wav" WAVE
    INDEX 01 00:00:00
  TRACK 16 AUDIO
    TITLE "Refrigeratin' Papa (Mama's Gonna Warm You Up)"
    PERFORMER "Ethel Waters"
    INDEX 00 02:50:37
FILE "16 - Refrigeratin' Papa (Mama's Gonna Warm You Up).wav" WAVE
    INDEX 01 00:00:00
  TRACK 17 AUDIO
    TITLE "If You Can't Hold the Man You Love"
    PERFORMER "Ethel Waters"
    INDEX 00 03:24:08
FILE "17 - If You Can't Hold the Man You Love.wav" WAVE
    INDEX 01 00:00:00
  TRACK 18 AUDIO
    TITLE "Satisfyin' Papa"
    PERFORMER "Ethel Waters"
    INDEX 00 02:49:65
FILE "18 - Satisfyin' Papa.wav" WAVE
    INDEX 01 00:00:00
  TRACK 19 AUDIO
    TITLE "Sugar"
    PERFORMER "Ethel Waters"
    INDEX 00 02:56:43
FILE "19 - Sugar.wav" WAVE
    INDEX 01 00:00:00
  TRACK 20 AUDIO
    TITLE "I Wonder What's Become of Joe?"
    PERFORMER "Ethel Waters"
    INDEX 00 03:11:50
FILE "20 - I Wonder What's Become of Joe.wav" WAVE
    INDEX 01 00:00:00
  TRACK 21 AUDIO
    TITLE "You'll Want Me Back"
    PERFORMER "Ethel Waters"
    INDEX 00 02:49:00
FILE "21 - You'll Want Me Back.wav" WAVE
    INDEX 01 00:00:00
  TRACK 22 AUDIO
    TITLE "Heebie Jeebies"
    PERFORMER "Ethel Waters"
    INDEX 00 03:09:23
FILE "22 - Heebie Jeebies.wav" WAVE
    INDEX 01 00:00:00
  TRACK 23 AUDIO
    TITLE "Ev'rybody Mess Aroun'"
    PERFORMER "Ethel Waters"
    INDEX 00 02:47:08
FILE "23 - Ev'rybody Mess Aroun'.wav" WAVE
    INDEX 01 00:00:00
 
 
Отчет CUETools
[CUETools log; Date: 02.11.2014 2:35:25; Version: 2.1.5]
Pregap length 00:00:32.
[CTDB TOCID: sRk8nTE7N77Gfx12q1MyJn2yW4c-] found.
Track | CTDB Status
  1   | (1/1) Accurately ripped
  2   | (1/1) Accurately ripped
  3   | (1/1) Accurately ripped
  4   | (1/1) Accurately ripped
  5   | (1/1) Accurately ripped
  6   | (1/1) Accurately ripped
  7   | (1/1) Accurately ripped
  8   | (1/1) Accurately ripped
  9   | (1/1) Accurately ripped
 10   | (1/1) Accurately ripped
 11   | (1/1) Accurately ripped
 12   | (1/1) Accurately ripped
 13   | (1/1) Accurately ripped
 14   | (1/1) Accurately ripped
 15   | (1/1) Accurately ripped
 16   | (1/1) Accurately ripped
 17   | (1/1) Accurately ripped
 18   | (1/1) Accurately ripped
 19   | (1/1) Accurately ripped
 20   | (1/1) Accurately ripped
 21   | (1/1) Accurately ripped
 22   | (1/1) Accurately ripped
 23   | (1/1) Accurately ripped
[AccurateRip ID: 003a629a-03cbbfb7-57107017] disk not present in database.
Track Peak [ CRC32  ] [W/O NULL] [  LOG   ]
 --   99,7 [1433FB59] [12C1EEFE]
 01   87,0 [5DEA113F] [03CF92D5]   CRC32
 02   87,4 [945B994D] [852116A9]   CRC32
 03   76,6 [13266709] [AD116ACC]   CRC32
 04   99,7 [679C67E1] [9AED9E36]   CRC32
 05   72,8 [72350336] [C0906C6A]   CRC32
 06   88,9 [9AA81EC5] [3B2CD2E1]   CRC32
 07   87,8 [B4573933] [74FFA69F]   CRC32
 08   67,1 [EEA4E190] [62D96308]   CRC32
 09   75,2 [6216499C] [70F9BCE0]   CRC32
 10   76,3 [A2149F3C] [F276B632]   CRC32
 11   66,6 [4A910695] [8D2DA37C]   CRC32
 12   77,8 [4BC5EBD5] [70C398CC]   CRC32
 13   74,9 [C6B8D77B] [55677F65]   CRC32
 14   60,5 [6DF59D50] [56ABFA14]   CRC32
 15   80,4 [64CCCFEE] [0C25096B]   CRC32
 16   75,0 [4E80697F] [AC66E8E8]   CRC32
 17   80,9 [B1E60242] [7A0D8156]   CRC32
 18   64,7 [B23276CA] [9F0F6B7F]   CRC32
 19   82,4 [E354151A] [C4FC5AE5]   CRC32
 20   64,3 [7ADD9D2D] [FC8F5A35]   CRC32
 21   83,9 [1CED1FD1] [B23D1D1B]   CRC32
 22   95,3 [7CB119CB] [3E6699AE]   CRC32
 23   73,8 [E87CB5DD] [69873BCB]   CRC32
 
 
Ethel Waters - 1929-1931 (The Chronological Classics)
Ethel Waters - 1929-1931 (The Chronological Classics)
Страна-производитель диска: Франция
Год издания: 1993
Издатель (лейбл): Classics
Номер по каталогу: 721
Аудиокодек: FLAC (*.flac)
Тип рипа: image+.cue
Битрейт аудио: lossless
Продолжительность: 68:35
Источник (релизер): Mazeppa (hqshare)
Треклист:
01. Second Handed Man (2:50)
02. True Blue Lou (3:02)
03. Do I Know What I'm Doin' (2:52)
04. Shoo Shoo Boogie Boo (2:51)
05. Georgia Blues (3:26)
06. I Like the Way He Does It (2:35)
07. Waiting at the End of the Road (3:22)
08. Trav'lin' All Alone (3:00)
09. Long Lean Lanky Mama (2:51)
10. Better Keep Your Eye on Your Man (2:59)
11. Porgy (3:38)
12. (What Did I Do to Be So) Black and Blue (3:04)
13. My Kind of Man (3:03)
14. You Brought a New Kind of Love to Me (3:25)
15. You're Lucky to Me (3:11)
16. Memories of You (3:20)
17. I Got Rhythm (3:10)
18. Three Little Words (3:10)
19. When Your Lover Has Gone (3:11)
20. Please Don't Talk About Me When I'm Gone (3:17)
21. You Can't Stop Me from Loving You (3:25)
22. Without That Gal! (2:55)
 
 
Review by Scott Yanow
During the period covered in this CD from Classics' Complete Ethel Waters series, the singer was quickly developing into a top musical comedy and Broadway star. Although her backup was not as jazz-oriented as previously (despite the presence of such players as clarinetist Benny Goodman, trombonist Tommy Dorsey, Jimmy Dorsey on clarinet and alto and trumpeter Manny Klein), Waters's renditions of many of these future standards are definitive, particularly "True Blue Lou," "Waiting at the End of the Road," "Porgy," "You're Lucky to Me" and "When Your Lover Has Gone." Superior jazz-oriented singing from one of the very best.
 
 
Лог создания рипа
Exact Audio Copy V0.99 prebeta 4 from 23. January 2008
EAC extraction logfile from 24. February 2008, 8:55
Ethel Waters / 1929-1931
Used drive  : PLEXTOR DVDR   PX-800A   Adapter: 1  ID: 0
Read mode               : Secure
Utilize accurate stream : Yes
Defeat audio cache      : Yes
Make use of C2 pointers : No
Read offset correction                      : 48
Overread into Lead-In and Lead-Out          : No
Fill up missing offset samples with silence : Yes
Delete leading and trailing silent blocks   : No
Null samples used in CRC calculations       : Yes
Used interface                              : Installed external ASPI interface
Used output format              : User Defined Encoder
Selected bitrate                : 320 kBit/s
Quality                         : High
Add ID3 tag                     : No
Command line compressor         : C:\Program Files\FLAC\flac.exe
Additional command line options :  -V -8 -T "artist=%a" -T "title=%t" -T "album=%g" -T "date=%y" -T "tracknumber=%n" -T "genre=%m" %s
TOC of the extracted CD
     Track |   Start  |  Length  | Start sector | End sector
    ---------------------------------------------------------
        1  |  0:00.33 |  2:50.07 |        33    |    12789
        2  |  2:50.40 |  3:02.18 |     12790    |    26457
        3  |  5:52.58 |  2:51.47 |     26458    |    39329
        4  |  8:44.30 |  2:50.70 |     39330    |    52149
        5  | 11:35.25 |  3:25.55 |     52150    |    67579
        6  | 15:01.05 |  2:35.30 |     67580    |    79234
        7  | 17:36.35 |  3:21.63 |     79235    |    94372
        8  | 20:58.23 |  3:00.02 |     94373    |   107874
        9  | 23:58.25 |  2:51.18 |    107875    |   120717
       10  | 26:49.43 |  2:58.42 |    120718    |   134109
       11  | 29:48.10 |  3:38.05 |    134110    |   150464
       12  | 33:26.15 |  3:03.65 |    150465    |   164254
       13  | 36:30.05 |  3:02.53 |    164255    |   177957
       14  | 39:32.58 |  3:25.15 |    177958    |   193347
       15  | 42:57.73 |  3:11.22 |    193348    |   207694
       16  | 46:09.20 |  3:19.70 |    207695    |   222689
       17  | 49:29.15 |  3:09.48 |    222690    |   236912
       18  | 52:38.63 |  3:09.50 |    236913    |   251137
       19  | 55:48.38 |  3:10.42 |    251138    |   265429
       20  | 58:59.05 |  3:17.13 |    265430    |   280217
       21  | 62:16.18 |  3:24.50 |    280218    |   295567
       22  | 65:40.68 |  2:54.40 |    295568    |   308657
Range status and errors
Selected range
     Filename D:\WinRar\Ethel Waters - 1929-1931 (Chronogical Classics)[FLAC Full Scans]\Ethel Waters - 1929-1931.wav
     Peak level 82.5 %
     Range quality 100.0 %
     Test CRC 8BAE23A7
     Copy CRC 8BAE23A7
     Copy OK
No errors occurred
AccurateRip summary
Track  1  not present in database
Track  2  not present in database
Track  3  not present in database
Track  4  not present in database
Track  5  not present in database
Track  6  not present in database
Track  7  not present in database
Track  8  not present in database
Track  9  not present in database
Track 10  not present in database
Track 11  not present in database
Track 12  not present in database
Track 13  not present in database
Track 14  not present in database
Track 15  not present in database
Track 16  not present in database
Track 17  not present in database
Track 18  not present in database
Track 19  not present in database
Track 20  not present in database
Track 21  not present in database
Track 22  not present in database
None of the tracks are present in the AccurateRip database
End of status report
 
 
Содержание индексной карты (.CUE)
REM GENRE Jazz
REM DATE 1993
REM DISCID 2E101316
REM COMMENT "ExactAudioCopy v0.99pb4"
PERFORMER "Ethel Waters"
TITLE "1929-1931"
FILE "Ethel Waters - 1929-1931.wav" WAVE
  TRACK 01 AUDIO
    TITLE "Second Handed Man"
    PERFORMER "Ethel Waters"
    INDEX 00 00:00:00
    INDEX 01 00:00:33
  TRACK 02 AUDIO
    TITLE "True Blue Lou"
    PERFORMER "Ethel Waters"
    INDEX 00 02:49:13
    INDEX 01 02:50:40
  TRACK 03 AUDIO
    TITLE "Do I Know What I'm Doin'"
    PERFORMER "Ethel Waters"
    INDEX 00 05:50:45
    INDEX 01 05:52:58
  TRACK 04 AUDIO
    TITLE "Shoo Shoo Boogie Boo"
    PERFORMER "Ethel Waters"
    INDEX 00 08:43:01
    INDEX 01 08:44:30
  TRACK 05 AUDIO
    TITLE "Georgia Blues"
    PERFORMER "Ethel Waters"
    INDEX 00 11:34:25
    INDEX 01 11:35:25
  TRACK 06 AUDIO
    TITLE "I Like the Way He Does It"
    PERFORMER "Ethel Waters"
    INDEX 00 14:59:20
    INDEX 01 15:01:05
  TRACK 07 AUDIO
    TITLE "Waiting at the End of the Road"
    PERFORMER "Ethel Waters"
    INDEX 00 17:34:73
    INDEX 01 17:36:35
  TRACK 08 AUDIO
    TITLE "Trav'lin' All Alone"
    PERFORMER "Ethel Waters"
    INDEX 00 20:56:48
    INDEX 01 20:58:23
  TRACK 09 AUDIO
    TITLE "Long Lean Lanky Mama"
    PERFORMER "Ethel Waters"
    INDEX 00 23:56:73
    INDEX 01 23:58:25
  TRACK 10 AUDIO
    TITLE "Better Keep Your Eye on Your Man"
    PERFORMER "Ethel Waters"
    INDEX 00 26:48:23
    INDEX 01 26:49:43
  TRACK 11 AUDIO
    TITLE "Porgy"
    PERFORMER "Ethel Waters"
    INDEX 00 29:47:10
    INDEX 01 29:48:10
  TRACK 12 AUDIO
    TITLE "(What Did I Do to Be So) Black and Blue"
    PERFORMER "Ethel Waters"
    INDEX 00 33:24:45
    INDEX 01 33:26:15
  TRACK 13 AUDIO
    TITLE "My Kind of Man"
    PERFORMER "Ethel Waters"
    INDEX 00 36:28:30
    INDEX 01 36:30:05
  TRACK 14 AUDIO
    TITLE "You Brought a New Kind of Love to Me"
    PERFORMER "Ethel Waters"
    INDEX 00 39:31:28
    INDEX 01 39:32:58
  TRACK 15 AUDIO
    TITLE "Your're Lucky to Me"
    PERFORMER "Ethel Waters"
    INDEX 00 42:56:43
    INDEX 01 42:57:73
  TRACK 16 AUDIO
    TITLE "Memories of You"
    PERFORMER "Ethel Waters"
    INDEX 00 46:07:38
    INDEX 01 46:09:20
  TRACK 17 AUDIO
    TITLE "I Got Rhythm"
    PERFORMER "Ethel Waters"
    INDEX 00 49:27:65
    INDEX 01 49:29:15
  TRACK 18 AUDIO
    TITLE "Three Little Words"
    PERFORMER "Ethel Waters"
    INDEX 00 52:37:60
    INDEX 01 52:38:63
  TRACK 19 AUDIO
    TITLE "When Your Lover Has Gone"
    PERFORMER "Ethel Waters"
    INDEX 00 55:46:60
    INDEX 01 55:48:38
  TRACK 20 AUDIO
    TITLE "Please Don't Talk About Me When I'm Gone"
    PERFORMER "Ethel Waters"
    INDEX 00 58:57:68
    INDEX 01 58:59:05
  TRACK 21 AUDIO
    TITLE "You Can't Stop Me from Loving You"
    PERFORMER "Ethel Waters"
    INDEX 00 62:14:23
    INDEX 01 62:16:18
  TRACK 22 AUDIO
    TITLE "Without That Gal!"
    PERFORMER "Ethel Waters"
    INDEX 00 65:39:20
    INDEX 01 65:40:68
 
 
Отчет CUETools
[CUETools log; Date: 14.09.2013 16:58:50; Version: 2.1.4]
Pregap length 00:00:33.
[CTDB TOCID: yvudPOm2QRPTTSctLAc12g8Nkv0-] disk not present in database.
[AccurateRip ID: 00353cdc-0358fd58-2e101316] found.
Track   [  CRC   |   V2   ] Status
 01     [52ee6391|2f8367b3] (0+0/0) No match
 02     [7746727d|794bafc1] (0+0/0) No match
 03     [d8cfc594|8f6d1bde] (0+0/0) No match
 04     [450e280f|225f6252] (0+0/0) No match
 05     [7affcb5b|8e572c1f] (0+0/0) No match
 06     [eb0ec2f5|6c6a707e] (0+0/0) No match
 07     [11e2f06a|1402261b] (0+0/0) No match
 08     [5dcc2ccb|05f3f889] (0+0/0) No match
 09     [289d9077|bdbcd565] (0+0/0) No match
 10     [66bd5abd|02e129c7] (0+0/0) No match
 11     [978559b2|96bbd857] (0+0/0) No match
 12     [1fa93545|ff1b66fb] (0+0/0) No match
 13     [61eab00f|1c42e40b] (0+0/0) No match
 14     [93376c54|a85bde45] (0+0/0) No match
 15     [6c60f311|8dc82dc1] (0+0/0) No match
 16     [994836c7|2ccf5f3f] (0+0/0) No match
 17     [99dfd527|10330887] (0+0/0) No match
 18     [1158d310|dfa8da64] (0+0/0) No match
 19     [484c5af2|8eaafa28] (0+0/0) No match
 20     [b4cb6731|e372126e] (0+0/0) No match
 21     [79674d45|c9691378] (0+0/0) No match
 22     [b1e94b90|3565256a] (0+0/0) No match
Track Peak [ CRC32  ] [W/O NULL] [  LOG   ]
 --   82,5 [8BAE23A7] [474F7309]   CRC32
 01   77,7 [BCF611C4] [620FA74E]
 02   73,8 [90D1F028] [7F76B3CF]
 03   82,5 [ABE72B0F] [3C93849D]
 04   79,5 [EE882EEB] [47C8F725]
 05   62,5 [82251352] [401BABEC]
 06   70,4 [E6671663] [CE571C2E]
 07   66,9 [0B7FAF10] [8074BECD]
 08   69,2 [A8A67F0C] [BDC13D7E]
 09   71,4 [4331ABF6] [36F7D2D9]
 10   65,4 [7CBEC696] [A8C85CC1]
 11   56,9 [90285FDD] [538DA60D]
 12   60,5 [63259EDD] [9E7C20BD]
 13   55,6 [776945A2] [37434EA5]
 14   59,5 [39D1194B] [4625FF6C]
 15   71,3 [BC083BAB] [300D9E72]
 16   60,3 [8EE17532] [CF29A8C5]
 17   68,4 [8BECF2F4] [BF5BFE80]
 18   59,9 [DE28B5BE] [4A184BE4]
 19   62,9 [01A23AE5] [B13A08A3]
 20   64,9 [5321F57A] [54AA91D8]
 21   70,2 [8064AC62] [81CA3DB9]
 22   57,8 [45CEE43B] [D0B8927A]
 
 
Ethel Waters - 1931-1934 (The Chronological Classics)
Ethel Waters - 1931-1934 (The Chronological Classics)
Страна-производитель диска: Франция
Год издания: 1993
Издатель (лейбл): Classics
Номер по каталогу: 735
Аудиокодек: FLAC (*.flac)
Тип рипа: image+.cue
Битрейт аудио: lossless
Продолжительность: 71:46
Источник (релизер): Mazeppa (hqshare)
Треклист:
01. River Stay 'Way from My Door (3:03)
02. Shine On, Harvest Moon (3:01)
03. I Can't Give You Anything But Love (3:07)
04. Porgy (3:17)
05. St. Louis Blues (3:24)
06. Stormy Weather (Keeps Rainin' All the Time) (3:12)
07. Love Is the Thing (3:19)
08. Don't Blame Me (3:15)
09. Shadows on the Swannee (3:02)
10. Heat Wave (3:02)
11. Harlem on My Mind (3:29)
12. I Just Couldn't Take It Baby (2:57)
13. A Hundred Years from Today (2:47)
14. Come Up and See Me Sometime (3:05)
15. You've Seen Harlem at Its Best (2:55)
16. Miss Otis Regrets (She's Unable to Lunch Today) (3:06)
17. Dinah (2:48)
18. When It's Sleepy Time Down South (2:48)
19. Moonglow (3:23)
20. Give Me a Heart to Sing To (3:22)
21. I Ain't Gonna Sin No More (3:11)
22. Trade Mark (3:06)
23. You're Going to Leave the Old Home, Jim (3:07)
 
 
Review by Scott Yanow
Ethel Waters was one of the very few Black performers who was able to keep working in music during the early years of the Depression; in fact her fame grew during the period covered by this excellent CD from Classics' Complete series. Among her backup musicians on these consistently excellent sides are violinist Joe Venuti, the Dorsey Brothers, trumpeter Bunny Berigan, trombonist Jack Teagarden, clarinetist Benny Goodman members of the Chick Webb big band and the entire Duke Ellington orchestra (the latter on "I Can't Give You Anything but Love" and "Porgy"). Highpoints include the Ellington tracks, "St. Louis Blues" (with The Cecil Mack Choir), the original version of "Stormy Weather," "A Hundred Years from Today" and a remake of "Dinah." Highly recommended as are all of the Ethel Waters Classics discs.
 
 
Лог создания рипа
Any questions - support@pro-jazz.com. Есть вопросы - support@pro-jazz.com
04:37
309