Поиск

2017 VA - Bossa N Adele {Time Blues}

2017 VA - Bossa N Adele {Time Blues}
Страна-производитель диска (релиза):
Russia
Дата издания диска:
2017
Носитель:
CD
Битрейт аудио:
lossless
Аудиокодек:
FLAC (*.flac)
Тип рипа:
image+.cue
Время звучания:
52'03''
Наличие сканов:
  • да
Релизёр (источник):
RedHotBlues
Треклист:

01. Amazonics / Hello [0:04:31.57]
02. Michelle Simonal / When we were young [0:05:23.38]
03. Morgan, G  & Machines / Don't You Remember? [0:04:13.00]
04. Sao Vicente feat. Shelly Sony / Someone like you [0:05:37.19]
05. Shirley Adamson / Rolling in the Deep [0:04:08.19]
06. Banda Do Sul feat. Natascha / All I Ask [0:05:09.57]
07. Brazil XXI / Set fire to the rain [0:04:09.38]
08. Sixth Finger feat. Natalie Renoir / Skyfall [0:03:35.19]
09. United Rhythms Of Brazil / Make you feel my love [0:03:47.00]
10. Jingo / Turning tables [0:03:51.19]
11. Scubba feat. Anekka / Million years ago [0:03:53.14]
12. Bellestar / Chasing pavements [0:03:42.19]

Лог создания рипа
Exact Audio Copy V1.3 from 2. September 2016

Отчёт EAC об извлечении, выполненном 7. ноября 2017, 21:29

Various Artists / Bossa N Adele

Дисковод: ASUS    DRW-22B3S   Adapter: 1  ID: 3

Режим чтения                 : Достоверность
Использование точного потока : Да
Отключение кэша аудио        : Да
Использование указателей C2  : Нет

Коррекция смещения при чтении                     : 6
Способность читать области Lead-in и Lead-out     : Нет
Заполнение пропущенных сэмплов тишиной            : Да
Удаление блоков с тишиной в начале и конце        : Нет
При вычислениях CRC использовались нулевые сэмплы : Да
Интерфейс                                         : Встроенный Win32-интерфейс для Win NT/2000

Выходной формат          : Пользовательский кодировщик
Выбранный битрейт        : 768 kBit/s
Качество                 : Высокий
Добавление ID3-тега      : Нет
Утилита сжатия           : C:\Program Files\Exact Audio Copy\FLAC\FLAC.EXE
Дополнительные параметры : -6 -V -T "ARTIST=%artist%" -T "TITLE=%title%" -T "ALBUM=%albumtitle%" -T "DATE=%year%" -T "TRACKNUMBER=%tracknr%" -T "GENRE=%genre%" -T "COMMENT=%comment%" -T "BAND=%albuminterpret%" -T "ALBUMARTIST=%albuminterpret%" -T "COMPOSER=%composer%" %haslyrics%--tag-from-file=LYRICS="%lyricsfile%"%haslyrics% -T "DISCNUMBER=%cdnumber%" -T "TOTALDISCS=%totalcds%" -T "TOTALTRACKS=%numtracks%" %hascover%--picture="%coverfile%"%hascover% %source% -o %dest%

TOC извлечённого CD

     Трек |   Старт  | Длительность | Начальный сектор | Конечный сектор
    ---------------------------------------------------------------------
       1  |  0:00.00 |    4:31.57   |           0      |      20381
       2  |  4:31.57 |    5:23.38   |       20382      |      44644
       3  |  9:55.20 |    4:13.00   |       44645      |      63619
       4  | 14:08.20 |    5:37.19   |       63620      |      88913
       5  | 19:45.39 |    4:08.19   |       88914      |     107532
       6  | 23:53.58 |    5:09.57   |      107533      |     130764
       7  | 29:03.40 |    4:09.38   |      130765      |     149477
       8  | 33:13.03 |    3:35.19   |      149478      |     165621
       9  | 36:48.22 |    3:47.00   |      165622      |     182646
      10  | 40:35.22 |    3:51.19   |      182647      |     199990
      11  | 44:26.41 |    3:53.14   |      199991      |     217479
      12  | 48:19.55 |    3:42.19   |      217480      |     234148

Характеристики диапазона извлечения и сообщения об ошибках

Выбранный диапазон

     Имя файла F:\My Uploads 03.10.17\Bossa N Adele  2017  52'03''\Various Artists - Bossa N Adele.wav

     Пиковый уровень 100.0 %
     Скорость извлечения 3.2 X
     Качество диапазона 100.0 %
     CRC теста 3F188ECD
     CRC копии 3F188ECD
     Копирование... OK

Ошибок не произошло

Конец отчёта

---- CUETools DB Plugin V2.1.6

[CTDB TOCID: woBzqaad915csVEmCWIiUllSW6M-] found
Submit result: woBzqaad915csVEmCWIiUllSW6M- has been confirmed
Track | CTDB Status
  1   | (1/1) Accurately ripped
  2   | (1/1) Accurately ripped
  3   | (1/1) Accurately ripped
  4   | (1/1) Accurately ripped
  5   | (1/1) Accurately ripped
  6   | (1/1) Accurately ripped
  7   | (1/1) Accurately ripped
  8   | (1/1) Accurately ripped
  9   | (1/1) Accurately ripped
 10   | (1/1) Accurately ripped
 11   | (1/1) Accurately ripped
 12   | (1/1) Accurately ripped

==== Контрольная сумма отчёта BFD9268C04D4DA8D3233390F881996479FD9B6B7EC3D0E3B3141F32DBFC9542E ====
Содержание индексной карты (.CUE)
REM GENRE Jazz
REM DATE 2017
REM DISCID AE0C310C
REM COMMENT "ExactAudioCopy v1.3"
PERFORMER "Various Artists"
TITLE "Bossa N Adele"
REM COMPOSER ""
FILE "Various Artists - Bossa N Adele.flac" WAVE
  TRACK 01 AUDIO
    TITLE "Hello "
    PERFORMER "Amazonics"
    REM COMPOSER ""
    INDEX 01 00:00:00
  TRACK 02 AUDIO
    TITLE "When we were young"
    PERFORMER "Michelle Simonal"
    REM COMPOSER ""
    INDEX 01 04:31:57
  TRACK 03 AUDIO
    TITLE "Don't You Remember?"
    PERFORMER "Morgan, G  & Machines"
    REM COMPOSER ""
    INDEX 01 09:55:20
  TRACK 04 AUDIO
    TITLE "Someone like you "
    PERFORMER "Sao Vicente feat. Shelly Sony"
    REM COMPOSER ""
    INDEX 01 14:08:20
  TRACK 05 AUDIO
    TITLE "Rolling in the Deep"
    PERFORMER "Shirley Adamson"
    REM COMPOSER ""
    INDEX 01 19:45:39
  TRACK 06 AUDIO
    TITLE "All I Ask"
    PERFORMER "Banda Do Sul feat. Natascha"
    REM COMPOSER ""
    INDEX 01 23:53:58
  TRACK 07 AUDIO
    TITLE "Set fire to the rain "
    PERFORMER "Brazil XXI"
    REM COMPOSER ""
    INDEX 01 29:03:40
  TRACK 08 AUDIO
    TITLE "Skyfall"
    PERFORMER "Sixth Finger feat. Natalie Renoir"
    REM COMPOSER ""
    INDEX 01 33:13:03
  TRACK 09 AUDIO
    TITLE "Make you feel my love"
    PERFORMER "United Rhythms Of Brazil"
    REM COMPOSER ""
    INDEX 01 36:48:22
  TRACK 10 AUDIO
    TITLE "Turning tables"
    PERFORMER "Jingo"
    REM COMPOSER ""
    INDEX 01 40:35:22
  TRACK 11 AUDIO
    TITLE "Million years ago "
    PERFORMER "Scubba feat. Anekka"
    REM COMPOSER ""
    INDEX 01 44:26:41
  TRACK 12 AUDIO
    TITLE "Chasing pavements"
    PERFORMER "Bellestar"
    REM COMPOSER ""
    INDEX 01 48:19:55
Лог проверки качества
-----------------------

DON'T MODIFY THIS FILE

-----------------------

PERFORMER: auCDtect Task Manager, ver. 1.6.0 RC1 build 1.6.0.1
Copyright (c) 2008-2010 y-soft. All rights reserved
http://y-soft.org

ANALYZER: auCDtect: CD records authenticity detector, version 0.8.2
Copyright (c) 2004 Oleg Berngardt. All rights reserved.
Copyright (c) 2004 Alexander Djourik. All rights reserved.

FILE: Various Artists - Bossa N Adele.flac
  Size: 350029182 Hash: 299409520352A3C41A88F5F717686EA3 Accuracy: -m0
  Conclusion: CDDA 100%
  Signature: 0F6698CD97B7592D08D96673C55C2983EC59E789
Приватный:
Нет (DHT включён)
Размер:
419.95 Мб (440,344,937 байт) » файлов: 11
Участники:
0 раздают, 0 качают (0 участников всего)
Внешние участники:
Нет внешних трекеров [ Обновить ]
19:52
49
RSS
Нет комментариев. Ваш будет первым!