Поиск

2017 The Great Harry Hillman - Tilt {Cuneiform Rune 433}

2017 The Great Harry Hillman - Tilt {Cuneiform Rune 433}
Стили:
Страна-производитель диска (релиза):
USA
Дата издания диска:
2017
Издатель (лейбл):
Номер по каталогу:
Rune 433
Носитель:
CD
Битрейт аудио:
lossless
Аудиокодек:
FLAC (*.flac)
Тип рипа:
tracks+.cue
Время звучания:
43:11
Наличие сканов:
  • да
Релизёр (источник):
vp_sunset
Треклист:

1. Snoezelen. 5:16
2. Strengen denkt an. 4:30
3. The New Fragrance. 5:54
4. 354°. 6:55
5. Agnes fliegt. 5:06
6. Remazing Ace. 7:05
7. How to Dice an Onion. 4:13
8. Moustache. 4:08

Состав:
  • — Nils Fischer / reeds
  • — David Koch / guitar, efx
  • — Samuel Huwyler / bass
  • — Dominik Mahnig / drums
Лог создания рипа
Exact Audio Copy V1.0 beta 3 from 29. August 2011

EAC extraction logfile from 10. November 2017, 22:47

The Great Harry Hillman / Tilt

Used drive  : ATAPI   iHAS124   E   Adapter: 0  ID: 0

Read mode               : Secure
Utilize accurate stream : Yes
Defeat audio cache      : Yes
Make use of C2 pointers : No

Read offset correction                      : 6
Overread into Lead-In and Lead-Out          : No
Fill up missing offset samples with silence : Yes
Delete leading and trailing silent blocks   : No
Null samples used in CRC calculations       : Yes
Used interface                              : Native Win32 interface for Win NT & 2000
Gap handling                                : Appended to previous track

Used output format : Internal WAV Routines
Sample format      : 44.100 Hz; 16 Bit; Stereo

TOC of the extracted CD

     Track |   Start  |  Length  | Start sector | End sector
    ---------------------------------------------------------
        1  |  0:00.00 |  5:16.09 |         0    |    23708
        2  |  5:16.09 |  4:30.54 |     23709    |    44012
        3  |  9:46.63 |  5:54.14 |     44013    |    70576
        4  | 15:41.02 |  6:55.16 |     70577    |   101717
        5  | 22:36.18 |  5:06.43 |    101718    |   124710
        6  | 27:42.61 |  7:05.70 |    124711    |   156655
        7  | 34:48.56 |  4:13.23 |    156656    |   175653
        8  | 39:02.04 |  4:08.44 |    175654    |   194297

Track  1

     Filename C:\_EAC\01. Snoezelen.wav

     Pre-gap length  0:00:02.00

     Peak level 99.7 %
     Extraction speed 1.1 X
     Track quality 100.0 %
     Test CRC B4A11E36
     Copy CRC B4A11E36
     Track not present in AccurateRip database
     Copy OK

Track  2

     Filename C:\_EAC\02. Strengen denkt an.wav

     Pre-gap length  0:00:01.76

     Peak level 95.8 %
     Extraction speed 1.3 X
     Track quality 100.0 %
     Test CRC 116CDFDB
     Copy CRC 116CDFDB
     Track not present in AccurateRip database
     Copy OK

Track  3

     Filename C:\_EAC\03. The New Fragrance.wav

     Pre-gap length  0:00:01.76

     Peak level 98.8 %
     Extraction speed 1.4 X
     Track quality 100.0 %
     Test CRC 74054EDD
     Copy CRC 74054EDD
     Track not present in AccurateRip database
     Copy OK

Track  4

     Filename C:\_EAC\04. 354°.wav

     Pre-gap length  0:00:01.76

     Peak level 98.3 %
     Extraction speed 1.6 X
     Track quality 100.0 %
     Test CRC 3438E161
     Copy CRC 3438E161
     Track not present in AccurateRip database
     Copy OK

Track  5

     Filename C:\_EAC\05. Agnes fliegt.wav

     Pre-gap length  0:00:01.76

     Peak level 96.6 %
     Extraction speed 1.7 X
     Track quality 100.0 %
     Test CRC A96B55D7
     Copy CRC A96B55D7
     Track not present in AccurateRip database
     Copy OK

Track  6

     Filename C:\_EAC\06. Remazing Ace.wav

     Pre-gap length  0:00:01.76

     Peak level 96.2 %
     Extraction speed 1.7 X
     Track quality 99.9 %
     Test CRC 4CD08D60
     Copy CRC 4CD08D60
     Track not present in AccurateRip database
     Copy OK

Track  7

     Filename C:\_EAC\07. How to Dice an Onion.wav

     Pre-gap length  0:00:01.76

     Peak level 99.7 %
     Extraction speed 1.7 X
     Track quality 99.9 %
     Test CRC 079AF309
     Copy CRC 079AF309
     Track not present in AccurateRip database
     Copy OK

Track  8

     Filename C:\_EAC\08. Moustache.wav

     Pre-gap length  0:00:01.76

     Peak level 95.2 %
     Extraction speed 1.9 X
     Track quality 100.0 %
     Test CRC 5379A8ED
     Copy CRC 5379A8ED
     Track not present in AccurateRip database
     Copy OK

None of the tracks are present in the AccurateRip database

No errors occurred

End of status report

==== Log checksum FDD879FAF51516363E5E99DD9A707FEEC237CB68753161BA94547A9169013B02 ====
Содержание индексной карты (.CUE)
REM GENRE "Avant-Prog / Fusion"
REM DATE 2017
REM DISCID 6D0A1E08
REM COMMENT "ExactAudioCopy v1.0b3"
PERFORMER "The Great Harry Hillman"
TITLE "Tilt"
FILE "01. Snoezelen.wav" WAVE
  TRACK 01 AUDIO
    TITLE "Snoezelen"
    PERFORMER "The Great Harry Hillman"
    INDEX 01 00:00:00
  TRACK 02 AUDIO
    TITLE "Strengen denkt an"
    PERFORMER "The Great Harry Hillman"
    INDEX 00 05:14:27
FILE "02. Strengen denkt an.wav" WAVE
    INDEX 01 00:00:00
  TRACK 03 AUDIO
    TITLE "The New Fragrance"
    PERFORMER "The Great Harry Hillman"
    INDEX 00 04:28:72
FILE "03. The New Fragrance.wav" WAVE
    INDEX 01 00:00:00
  TRACK 04 AUDIO
    TITLE "354°"
    PERFORMER "The Great Harry Hillman"
    INDEX 00 05:52:32
FILE "04. 354°.wav" WAVE
    INDEX 01 00:00:00
  TRACK 05 AUDIO
    TITLE "Agnes fliegt"
    PERFORMER "The Great Harry Hillman"
    INDEX 00 06:53:34
FILE "05. Agnes fliegt.wav" WAVE
    INDEX 01 00:00:00
  TRACK 06 AUDIO
    TITLE "Remazing Ace"
    PERFORMER "The Great Harry Hillman"
    INDEX 00 05:04:61
FILE "06. Remazing Ace.wav" WAVE
    INDEX 01 00:00:00
  TRACK 07 AUDIO
    TITLE "How to Dice an Onion"
    PERFORMER "The Great Harry Hillman"
    INDEX 00 07:04:13
FILE "07. How to Dice an Onion.wav" WAVE
    INDEX 01 00:00:00
  TRACK 08 AUDIO
    TITLE "Moustache"
    PERFORMER "The Great Harry Hillman"
    INDEX 00 04:11:41
FILE "08. Moustache.wav" WAVE
    INDEX 01 00:00:00
Лог проверки качества
-----------------------

DON'T MODIFY THIS FILE

-----------------------

PERFORMER: auCDtect Task Manager, ver. 1.6.0 RC1 build 1.6.0.1
Copyright (c) 2008-2010 y-soft. All rights reserved
http://y-soft.org

ANALYZER: auCDtect: CD records authenticity detector, version 0.8.2
Copyright (c) 2004 Oleg Berngardt. All rights reserved.
Copyright (c) 2004 Alexander Djourik. All rights reserved.

FILE: 01. Snoezelen.flac
  Size: 31746152 Hash: 74A3CF6043C7F68E1152A6101423365C Accuracy: -m0
  Conclusion: CDDA 100%
  Signature: 32596AE4777BE052694F56FD10BA6868A6C92E85
FILE: 02. Strengen denkt an.flac
  Size: 27138186 Hash: 0B3F4AE42E22F6D1A770EE2FBF297D09 Accuracy: -m0
  Conclusion: CDDA 100%
  Signature: 6905420F9940654E5A84065D57FBCFB323695C08
FILE: 03. The New Fragrance.flac
  Size: 40157952 Hash: D5A9B1ADA56FCEBCF46126D2B1F4EC84 Accuracy: -m0
  Conclusion: CDDA 100%
  Signature: F34F32F1790DA5B6033C1C4E9C5C306397B85F79
FILE: 04. 354°.flac
  Size: 40508410 Hash: A137E65D4BF5E01AF0CE4C1C40F3AEBA Accuracy: -m0
  Conclusion: CDDA 99%
  Signature: 675A75FD435D4A91B9F86371D6DB1BED47FDC248
FILE: 05. Agnes fliegt.flac
  Size: 25365357 Hash: 77D97151F1749F2BED05EB871291F602 Accuracy: -m0
  Conclusion: CDDA 100%
  Signature: D946FFB24CA3EE178243B4894A9841793D26B186
FILE: 06. Remazing Ace.flac
  Size: 41385013 Hash: C1D0DCEE079493047E08DE79FB7C00F0 Accuracy: -m0
  Conclusion: CDDA 100%
  Signature: 0335D2C03A7608093C02AECF2CF0C5D2100C85C5
FILE: 07. How to Dice an Onion.flac
  Size: 27679022 Hash: BC5F47A053017CA71E9622593129D44E Accuracy: -m0
  Conclusion: CDDA 100%
  Signature: 973735011571396C149D2EA51C3FBE6B3BAA98B5
FILE: 08. Moustache.flac
  Size: 21689428 Hash: E795183C067FAE315350215B582477F6 Accuracy: -m0
  Conclusion: CDDA 100%
  Signature: 36D431B08AEB09F22A3331BD0E7B257501381F97
Приватный:
Нет (DHT включён)
Размер:
341.38 Мб (357,964,868 байт) » файлов: 20
Участники:
0 раздают, 0 качают (0 участников всего)
Внешние участники:
34 раздают, 11 качают (45 участников всего) [ Обновить ]
00:25
67
RSS
Нет комментариев. Ваш будет первым!