2017 Ricardo Silveira Trio - Simbora

2017 Ricardo Silveira Trio - Simbora
Дата издания диска:
2017
Носитель:
WEB
Аудиокодек:
FLAC (*.flac)
Тип рипа:
tracks
Время звучания:
46:58
Релизёр (источник):
papa1954
Треклист:

01. Aquela Pro Baden (4:32)
02. Outro Rio (6:28)
03. Outra Bossa (4:18)
04. Agreste (6:15)
05. Mais uma Vez (8:55)
06. Simbora 60 (5:34)
07. Ingenua (6:53)
08. Melhores Tempos (4:04)

Состав:
  • Ricardo Silveira — guitar
  • Guto Wirtti — bass
  • Thiago “Big” Rabello — drums

Формат записи/Источник записи: [TR24][OF]
Наличие водяных знаков: Нет
Разрядность: 24/96
Количество каналов: 2.0
Источник: hdtracks.com
<spoiler title="Лог проверки качества"><pre>foobar2000 1.3.9 / Dynamic Range Meter 1.1.1
log date: 2017-06-26 21:51:41
--------------------------------------------------------------------------------
Analyzed: Ricardo Silveira Trio / Simbora
--------------------------------------------------------------------------------
DR Peak RMS Duration Track
--------------------------------------------------------------------------------
DR11 -0.50 dB -12.74 dB 4:32 01-Aquela Pro Baden
DR10 -0.50 dB -11.79 dB 6:28 02-Outro Rio
DR12 -0.50 dB -14.27 dB 4:18 03-Outra Bossa
DR12 -0.50 dB -16.47 dB 6:15 04-Agreste
DR10 -0.50 dB -12.96 dB 8:55 05-Mais uma Vez
DR11 -0.50 dB -12.94 dB 5:34 06-Simbora 60
DR11 -0.50 dB -12.81 dB 6:53 07-Ingenua
DR10 -0.50 dB -12.61 dB 4:04 08-Melhores Tempos
--------------------------------------------------------------------------------
Number of tracks: 8
Official DR value: DR11
Samplerate: 96000 Hz
Channels: 2
Bits per sample: 24
Bitrate: 2266 kbps
Codec: FLAC
================================================================================
Приватный Нет (DHT включён)
Хэш A3DEDFDCF60A57944927DA0FBEEDA7E2360D0232
Размер 811.34 Мб (850,749,170 байт) » файлов: 12 [ Список файлов ]
Участники 0 раздают, 0 качают (0 участников всего)
Внешние участники 14 раздают, 4 качают (18 участников всего)
Скорость 0/c 4.68 Кб/c
22:32
77
RSS
Нет комментариев. Ваш будет первым!