Поиск

2017 Miles Mosley - Uprising

2017 Miles Mosley - Uprising
Страна-производитель диска (релиза):
USA
Дата издания диска:
19 мая 2017
Номер по каталогу:
5758788
Носитель:
CD
Битрейт аудио:
lossless
Аудиокодек:
FLAC (*.flac)
Тип рипа:
tracks+.cue
Время звучания:
43:57
Наличие сканов:
  • да
Релизёр (источник):
danoldlib
Треклист:

01. Young Lion (04:09)
02. Abraham (04:47)
03. L.A. Won't Bring You Down (03:21)
04. More Than This (05:16)
05. Heartbreaking Efforts Of Others (04:14)
06. Shadow Of Doubt (04:11)
07. Reap A Soul (03:34)
08. Sky High (03:43)
09. Your Only Cover (02:50)
10. Tuning Out (04:31)
11. Fire (03:16)

Состав:
  • Miles Mosley — bass, vocals
  • Kamasi Washington — tenor sax
  • Ryan Porter — trombone
  • Brandon Coleman — keyboards
  • Cameron Graves — piano
  • Tony Austin — drums
  • Guests
  • Dontae Winslow — trumpet
  • Zane Musa — sax
Лог создания рипа
<spoiler title="Лог создания рипа"><pre>Exact Audio Copy V1.0 beta 3 from 29. August 2011
EAC extraction logfile from 13. June 2017, 11:57
Miles Mosley / Uprising
Used drive : ASUS DRW-24F1ST a Adapter: 0 ID: 0
Read mode : Secure
Utilize accurate stream : Yes
Defeat audio cache : Yes
Make use of C2 pointers : No
Read offset correction : 6
Overread into Lead-In and Lead-Out : No
Fill up missing offset samples with silence : Yes
Delete leading and trailing silent blocks : No
Null samples used in CRC calculations : Yes
Used interface : Native Win32 interface for Win NT & 2000
Gap handling : Appended to previous track
Used output format : User Defined Encoder
Selected bitrate : 128 kBit/s
Quality : High
Add ID3 tag : No
Command line compressor : C:\Program Files (x86)\Exact Audio Copy\FLAC\FLAC.EXE
Additional command line options : -8 -V -T "ARTIST=%artist%" -T "TITLE=%title%" -T "ALBUM=%albumtitle%" -T "DATE=%year%" -T "TRACKNUMBER=%tracknr%" -T "TOTALTRACKS=%numtracks%" -T "GENRE=%genre%" -T "ALBUMARTIST=%albumartist%" -T "ALBUM ARTIST=%albumartist%" -T "COMMENT=EAC Secure Mode, Test & Copy, AccurateRip, FLAC -8" %source%
TOC of the extracted CD Track | Start | Length | Start sector | End sector --------------------------------------------------------- 1 | 0:00.00 | 4:09.09 | 0 | 18683 2 | 4:09.09 | 4:47.63 | 18684 | 40271 3 | 8:56.72 | 3:21.33 | 40272 | 55379 4 | 12:18.30 | 5:16.59 | 55380 | 79138 5 | 17:35.14 | 4:14.08 | 79139 | 98196 6 | 21:49.22 | 4:11.56 | 98197 | 117077 7 | 26:01.03 | 3:34.70 | 117078 | 133197 8 | 29:35.73 | 3:43.41 | 133198 | 149963 9 | 33:19.39 | 2:50.21 | 149964 | 162734 10 | 36:09.60 | 4:31.21 | 162735 | 183080 11 | 40:41.06 | 3:16.15 | 183081 | 197795
Track 1 Filename K:\EAC\01 - Young Lion.wav Pre-gap length 0:00:02.00 Peak level 100.0 % Extraction speed 1.7 X Track quality 100.0 % Test CRC C63F59D7 Copy CRC C63F59D7 Track not present in AccurateRip database Copy OK
Track 2 Filename K:\EAC\02 - Abraham.wav Peak level 100.0 % Extraction speed 1.8 X Track quality 99.9 % Test CRC 292569C7 Copy CRC 292569C7 Track not present in AccurateRip database Copy OK
Track 3 Filename K:\EAC\03 - L.A. Wont't Bring You Down.wav Peak level 100.0 % Extraction speed 2.0 X Track quality 100.0 % Test CRC 044985E0 Copy CRC 044985E0 Track not present in AccurateRip database Copy OK
Track 4 Filename K:\EAC\04 - More Than This.wav Peak level 100.0 % Extraction speed 2.4 X Track quality 100.0 % Test CRC F87A2FEE Copy CRC F87A2FEE Track not present in AccurateRip database Copy OK
Track 5 Filename K:\EAC\05 - Hearthbreaking Efforts of Others.wav Peak level 98.4 % Extraction speed 2.5 X Track quality 100.0 % Test CRC 0B524A23 Copy CRC 0B524A23 Track not present in AccurateRip database Copy OK
Track 6 Filename K:\EAC\06 - Shadow of Doubt.wav Peak level 98.6 % Extraction speed 2.6 X Track quality 100.0 % Test CRC 54704225 Copy CRC 54704225 Track not present in AccurateRip database Copy OK
Track 7 Filename K:\EAC\07 - Reap a Soul.wav Peak level 100.0 % Extraction speed 2.7 X Track quality 100.0 % Test CRC 9A594F62 Copy CRC 9A594F62 Track not present in AccurateRip database Copy OK
Track 8 Filename K:\EAC\08 - Sky High.wav Peak level 99.9 % Extraction speed 2.8 X Track quality 100.0 % Test CRC FBE38A11 Copy CRC FBE38A11 Track not present in AccurateRip database Copy OK
Track 9 Filename K:\EAC\09 - Your Only Cover.wav Peak level 100.0 % Extraction speed 2.3 X Track quality 99.9 % Test CRC 59DDD1DB Copy CRC 59DDD1DB Track not present in AccurateRip database Copy OK
Track 10 Filename K:\EAC\10 - Tunning Out.wav Peak level 100.0 % Extraction speed 3.0 X Track quality 100.0 % Test CRC DC1207AD Copy CRC DC1207AD Track not present in AccurateRip database Copy OK
Track 11 Filename K:\EAC\11 - Fire.wav Peak level 99.0 % Extraction speed 2.6 X Track quality 99.9 % Test CRC 0DC975D9 Copy CRC 0DC975D9 Track not present in AccurateRip database Copy OK
None of the tracks are present in the AccurateRip database
No errors occurred
End of status report
==== Log checksum 2550C4AF572962F946F88B3181E700A122FE0FBF9FCBB299F046A9E015CBC267 ====</pre></spoiler>
Приватный:
Нет (DHT включён)
Размер:
398.98 Мб (418,364,619 байт) » файлов: 29
Участники:
0 раздают, 0 качают (0 участников всего)
Внешние участники:
5 раздают, 2 качают (7 участников всего) [ Обновить ]
Скорость:
Торрент не зарегистрирован на трекере
19:55
78
RSS
Нет комментариев. Ваш будет первым!