Поиск

2017 Larry Carlton and the SWR Big Band - Lights On {Monsters Of Rock }

2017 Larry Carlton and the SWR Big Band - Lights On {Monsters Of Rock }
Стили:
Дата издания диска:
2017
Носитель:
CD
Битрейт аудио:
lossless
Аудиокодек:
FLAC (*.flac)
Тип рипа:
image+.cue
Время звучания:
68'17''
Наличие сканов:
  • да
Релизёр (источник):
RedHotBlues

Треклист:

01. Mellow Out [0:05:07.69]
02. Milestones [0:05:24.39]
03. Kid Charlemagne [0:08:03.14]
04. Fnnn [0:08:01.65]
05. Too Young To Go Steady [0:06:53.66]
06. My Favorite Things [0:07:30.73]
07. Room 335 [0:07:01.60]
08. Friday Nights Shuffle [0:06:38.66]
09. The Wells Gone Dry [0:08:42.66]
10. Black Friday [0:04:49.54]

Состав:

Тaped at SWR Stuttgart, tv studio A.
Solos by Larry and Axel Kühn, ts
SWR Big Band & Larry Carlton
cond. / arr.: Magnus Lindgren
Trumpets
Nemanja Jovanovic
Felice Civitareale
Karl Farrent
Martin Auer
Rudi Reindl
Trombones
Marc Godfroid
Ernst Hutter
Ian Cumming
Georg Maus
Saxes
Klaus Graf, as
Matthias Erlewein, as
Axel Kühn, ts
Andi Maile, ts
Pierre Paquette, bs
Rhythm:
Guido Jöris, dr
Thomas Stabenow, b
Klaus-Peter Schöpfer, g
Klaus Wageneleiter, p
Roland Peil, perc.
Vid director/editing: Michael Maschke

Лог создания рипа
Exact Audio Copy V1.3 from 2. September 2016

Отчёт EAC об извлечении, выполненном 7. ноября 2017, 22:15

Larry Carlton and the SWR Big Band / Lights On

Дисковод: ATAPI   iHAS122   C   Adapter: 1  ID: 0

Режим чтения                 : Достоверность
Использование точного потока : Да
Отключение кэша аудио        : Да
Использование указателей C2  : Нет

Коррекция смещения при чтении                     : 6
Способность читать области Lead-in и Lead-out     : Нет
Заполнение пропущенных сэмплов тишиной            : Да
Удаление блоков с тишиной в начале и конце        : Нет
При вычислениях CRC использовались нулевые сэмплы : Да
Интерфейс                                         : Встроенный Win32-интерфейс для Win NT/2000

Выходной формат          : Пользовательский кодировщик
Выбранный битрейт        : 768 kBit/s
Качество                 : Высокий
Добавление ID3-тега      : Нет
Утилита сжатия           : C:\Program Files\Exact Audio Copy\FLAC\FLAC.EXE
Дополнительные параметры : -6 -V -T "ARTIST=%artist%" -T "TITLE=%title%" -T "ALBUM=%albumtitle%" -T "DATE=%year%" -T "TRACKNUMBER=%tracknr%" -T "GENRE=%genre%" -T "COMMENT=%comment%" -T "BAND=%albuminterpret%" -T "ALBUMARTIST=%albuminterpret%" -T "COMPOSER=%composer%" %haslyrics%--tag-from-file=LYRICS="%lyricsfile%"%haslyrics% -T "DISCNUMBER=%cdnumber%" -T "TOTALDISCS=%totalcds%" -T "TOTALTRACKS=%numtracks%" %hascover%--picture="%coverfile%"%hascover% %source% -o %dest%

TOC извлечённого CD

     Трек |   Старт  | Длительность | Начальный сектор | Конечный сектор
    ---------------------------------------------------------------------
       1  |  0:00.00 |    5:07.69   |           0      |      23093
       2  |  5:07.69 |    5:24.39   |       23094      |      47432
       3  | 10:32.33 |    8:03.14   |       47433      |      83671
       4  | 18:35.47 |    8:01.65   |       83672      |     119811
       5  | 26:37.37 |    6:53.66   |      119812      |     150852
       6  | 33:31.28 |    7:30.73   |      150853      |     184675
       7  | 41:02.26 |    7:01.60   |      184676      |     216310
       8  | 48:04.11 |    6:38.66   |      216311      |     246226
       9  | 54:43.02 |    8:42.66   |      246227      |     285442
      10  | 63:25.68 |    4:49.54   |      285443      |     307171

Характеристики диапазона извлечения и сообщения об ошибках

Выбранный диапазон

     Имя файла F:\My Uploads 03.10.17\Larry Carlton and the SWR Big Band - Lights On  2017  68'17''\Larry Carlton and the SWR Big Band - Lights On.wav

     Пиковый уровень 100.0 %
     Скорость извлечения 3.6 X
     Качество диапазона 100.0 %
     CRC теста 813F10AC
     CRC копии 813F10AC
     Копирование... OK

Ошибок не произошло

Конец отчёта

---- CUETools DB Plugin V2.1.6

[CTDB TOCID: 9N_ZG5GC9lkt.mGtmRvny_3EOio-] disk not present in database
Submit result: 9N_ZG5GC9lkt.mGtmRvny_3EOio- has been uploaded

==== Контрольная сумма отчёта 37202EB8D5872B1DDEF40D85087664DCE669317E26664BE9B4F2C90837122082 ====
Содержание индексной карты (.CUE)
REM GENRE "Jazz Big Band"
REM DATE 2017
REM DISCID 8F0FFF0A
REM COMMENT "ExactAudioCopy v1.3"
PERFORMER "Larry Carlton and the SWR Big Band"
TITLE "Lights On"
REM COMPOSER ""
FILE "Larry Carlton and the SWR Big Band - Lights On.flac" WAVE
  TRACK 01 AUDIO
    TITLE "Mellow Out"
    PERFORMER "Larry Carlton and the SWR Big Band"
    REM COMPOSER ""
    INDEX 01 00:00:00
  TRACK 02 AUDIO
    TITLE "Milestones"
    PERFORMER "Larry Carlton and the SWR Big Band"
    REM COMPOSER ""
    INDEX 01 05:07:69
  TRACK 03 AUDIO
    TITLE "Kid Charlemagne"
    PERFORMER "Larry Carlton and the SWR Big Band"
    REM COMPOSER ""
    INDEX 01 10:32:33
  TRACK 04 AUDIO
    TITLE "Fnnn"
    PERFORMER "Larry Carlton and the SWR Big Band"
    REM COMPOSER ""
    INDEX 01 18:35:47
  TRACK 05 AUDIO
    TITLE "Too Young To Go Steady"
    PERFORMER "Larry Carlton and the SWR Big Band"
    REM COMPOSER ""
    INDEX 01 26:37:37
  TRACK 06 AUDIO
    TITLE "My Favorite Things"
    PERFORMER "Larry Carlton and the SWR Big Band"
    REM COMPOSER ""
    INDEX 01 33:31:28
  TRACK 07 AUDIO
    TITLE "Room 335"
    PERFORMER "Larry Carlton and the SWR Big Band"
    REM COMPOSER ""
    INDEX 01 41:02:26
  TRACK 08 AUDIO
    TITLE "Friday Nights Shuffle"
    PERFORMER "Larry Carlton and the SWR Big Band"
    REM COMPOSER ""
    INDEX 01 48:04:11
  TRACK 09 AUDIO
    TITLE "The Wells Gone Dry"
    PERFORMER "Larry Carlton and the SWR Big Band"
    REM COMPOSER ""
    INDEX 01 54:43:02
  TRACK 10 AUDIO
    TITLE "Black Friday"
    PERFORMER "Larry Carlton and the SWR Big Band"
    REM COMPOSER ""
    INDEX 01 63:25:68
Приватный:
Нет (DHT включён)
Размер:
461.89 Мб (484,323,850 байт) » файлов: 10
Участники:
0 раздают, 1 качают (1 участников всего)
Внешние участники:
20 раздают, 7 качают (27 участников всего) [ Обновить ]
Скорость:
1.46 Мб/c 0/c
01:08
93
RSS
Нет комментариев. Ваш будет первым!