Поиск

2017 Kamasi Washington - Harmony of Difference {Young Turks YTCD171}

2017 Kamasi Washington - Harmony of Difference {Young Turks YTCD171}
Страна-производитель диска (релиза):
Great Britain
Дата записи диска:
сентябрь 2017
Издатель (лейбл):
Номер по каталогу:
YTCD171
Носитель:
CD
Битрейт аудио:
lossless
Аудиокодек:
FLAC (*.flac)
Тип рипа:
tracks+.cue
Время звучания:
31:56
Наличие сканов:
  • нет
Релизёр (источник):
finnagetpaid
Треклист:

01. Desire (4:37)
02. Humility (2:46)
03. Knowledge (3:52)
04. Perspective (3:24)
05. Integrity (3:47)
06. Truth (13:30)

Exact Audio Copy V1.3 from 2. September 2016EAC extraction logfile from 24. September 2017, 16:46Kamasi Washington / Harmony of DifferenceUsed drive: TSSTcorpCDDVDW SH-224DB Adapter: 1 ID: 0Read mode: SecureUtilize accurate stream: YesDefeat audio cache: YesMake use of C2 pointers: NoRead offset correction: 6Overread into Lead-In and Lead-Out: NoFill up missing offset samples with silence: YesDelete leading and trailing silent blocks: NoNull samples used in CRC calculations: YesUsed interface: Native Win32 interface for Win NT & 2000Gap handling: Appended to previous trackUsed output format: User Defined EncoderSelected bitrate: 1024 kBit/sQuality: HighAdd ID3 tag: NoCommand line compressor: C:\Users\tvroom\Downloads\flac-1.3.2-win\flac-1.3.2-win\win64\flac.exeAdditional command line options: -8 -e -p -V -T «ARTIST=%artist%» -T «TITLE=%title%» -T «ALBUM=%albumtitle%» -T «DATE=%year%» -T «TRACKNUMBER=%tracknr%» -T «GENRE=%genre%» -T «PERFORMER=%albuminterpret%» -T «COMPOSER=%composer%» %haslyrics%--tag-from-file=LYRICS="%lyricsfile%"%haslyrics% -T «ALBUMARTIST=%albumartist%» -T «DISCNUMBER=%cdnumber%» -T «TOTALDISCS=%totalcds%» -T «TOTALTRACKS=%numtracks%» -T «COMMENT=%comment%» %source% -o %dest%TOC of the extracted CD Track | Start | Length | Start sector | End sector — 1 | 0:00.00 | 4:36.68 | 0 | 20767 2 | 4:36.68 | 2:46.13 | 20768 | 33230 3 | 7:23.06 | 3:51.70 | 33231 | 50625 4 | 11:15.01 | 3:24.28 | 50626 | 65953 5 | 14:39.29 | 3:47.37 | 65954 | 83015 6 | 18:26.66 | 13:30.24 | 83016 | 143789Track 1 Filename C:\EAC\Kamasi Washington — Harmony of Difference (2017) [FLAC] {YTCD171}\01 — Desire.wav Pre-gap length 0:00:02.00 Peak level 96.6 % Extraction speed 1.6 X Track quality 99.9 % Test CRC 38C84DBD Copy CRC 38C84DBD Track not present in AccurateRip database Copy OKTrack 2 Filename C:\EAC\Kamasi Washington — Harmony of Difference (2017) [FLAC] {YTCD171}\02 — Humility.wav Peak level 96.6 % Extraction speed 1.8 X Track quality 100.0 % Test CRC 2ACE7FD9 Copy CRC 2ACE7FD9 Track not present in AccurateRip database Copy OKTrack 3 Filename C:\EAC\Kamasi Washington — Harmony of Difference (2017) [FLAC] {YTCD171}\03 — Knowledge.wav Peak level 96.6 % Extraction speed 1.9 X Track quality 100.0 % Test CRC 1751226C Copy CRC 1751226C Track not present in AccurateRip database Copy OKTrack 4 Filename C:\EAC\Kamasi Washington — Harmony of Difference (2017) [FLAC] {YTCD171}\04 — Perspective.wav Peak level 96.6 % Extraction speed 2.1 X Track quality 100.0 % Test CRC 35271512 Copy CRC 35271512 Track not present in AccurateRip database Copy OKTrack 5 Filename C:\EAC\Kamasi Washington — Harmony of Difference (2017) [FLAC] {YTCD171}\05 — Integrity.wav Peak level 96.6 % Extraction speed 2.3 X Track quality 100.0 % Test CRC 833D8C71 Copy CRC 833D8C71 Track not present in AccurateRip database Copy OKTrack 6 Filename C:\EAC\Kamasi Washington — Harmony of Difference (2017) [FLAC] {YTCD171}\06 — Truth.wav Peak level 96.6 % Extraction speed 2.8 X Track quality 100.0 % Test CRC FCA87475 Copy CRC FCA87475 Track not present in AccurateRip database Copy OKNone of the tracks are present in the AccurateRip databaseNo errors occurredEnd of status report---- CUETools DB Plugin V2.1.6[CTDB TOCID: 2S_iPoFKtg5yTrM6CPd2VqplMq8-] foundSubmit result: 2S_iPoFKtg5yTrM6CPd2VqplMq8- has been confirmedTrack | CTDB Status 1 | (1/1) Accurately ripped 2 | (1/1) Accurately ripped 3 | (1/1) Accurately ripped 4 | (1/1) Accurately ripped 5 | (1/1) Accurately ripped 6 | (1/1) Accurately ripped==== Log checksum 8C0928E7F7DE2C341DC3EC6DAFB6EA2786139A66047A845C1826132200AC2FB7 ====
REM GENRE Jazz
REM DATE 2017
REM DISCID 4F077D06
REM COMMENT "ExactAudioCopy v1.3"
PERFORMER "Kamasi Washington"
TITLE "Harmony of Difference"
FILE "01 - Desire.wav" WAVE TRACK 01 AUDIO TITLE "Desire" PERFORMER "Kamasi Washington" INDEX 01 00:00:00
FILE "02 - Humility.wav" WAVE TRACK 02 AUDIO TITLE "Humility" PERFORMER "Kamasi Washington" INDEX 01 00:00:00
FILE "03 - Knowledge.wav" WAVE TRACK 03 AUDIO TITLE "Knowledge" PERFORMER "Kamasi Washington" INDEX 01 00:00:00
FILE "04 - Perspective.wav" WAVE TRACK 04 AUDIO TITLE "Perspective" PERFORMER "Kamasi Washington" INDEX 01 00:00:00
FILE "05 - Integrity.wav" WAVE TRACK 05 AUDIO TITLE "Integrity" PERFORMER "Kamasi Washington" INDEX 01 00:00:00
FILE "06 - Truth.wav" WAVE TRACK 06 AUDIO TITLE "Truth" PERFORMER "Kamasi Washington" INDEX 01 00:00:00
Отчет CUETools[CUETools log; Date: 25.09.2017 10:45:07; Version: 2.1.5][CTDB TOCID: 2S_iPoFKtg5yTrM6CPd2VqplMq8-] found.Track | CTDB Status 1 | (2/2) Accurately ripped 2 | (2/2) Accurately ripped 3 | (2/2) Accurately ripped 4 | (2/2) Accurately ripped 5 | (2/2) Accurately ripped 6 | (2/2) Accurately ripped[AccurateRip ID: 00061049-00213c52-4f077d06] disk not present in database.Track Peak [ CRC32 ] [W/O NULL] [ LOG ] — 96,6 [89C113DC] [EA3AC2F3] 01 96,6 [38C84DBD] [648983C1] CRC32 02 96,6 [2ACE7FD9] [38CC49E5] CRC32 03 96,6 [1751226C] [2280E99B] CRC32 04 96,6 [35271512] [1D6D3109] CRC32 05 96,6 [833D8C71] [F2785F15] CRC32 06 96,6 [FCA87475] [134AAC32] CRC32
00:45
97
RSS
Нет комментариев. Ваш будет первым!