Поиск

2017 Jeff Kashiwa - Fly Away {Time Blues 5639046225}

2017 Jeff Kashiwa - Fly Away {Time Blues 5639046225}
Стили:
Страна-производитель диска (релиза):
Russia
Дата издания диска:
4 августа 2017
Номер по каталогу:
5639046225
Носитель:
CD
Битрейт аудио:
lossless
Аудиокодек:
FLAC (*.flac)
Тип рипа:
image+.cue
Время звучания:
45'07''
Наличие сканов:
  • да
Релизёр (источник):
RedHotBlues

Треклист:

01. Side By Side [0:05:04.45]
02. Fly Away [0:04:37.29]
03. Lullalo [0:04:11.19]
04. Do It Again [0:04:40.34]
05. Solstice [0:03:29.01]
06. Six Of One [0:05:30.16]
07. 7th Heaven [0:04:40.47]
08. August Nights [0:04:25.26]
09. The Long Road [0:04:15.31]
10. The Sun Will Shine [0:04:11.30]

Лог создания рипа
Exact Audio Copy V1.3 from 2. September 2016
Отчёт EAC об извлечении, выполненном 7. ноября 2017, 18:52
Jeff Kashiwa / Fly Away
Дисковод: ASUS    DRW-22B3S   Adapter: 1  ID: 3
Режим чтения                 : Достоверность
Использование точного потока : Да
Отключение кэша аудио        : Да
Использование указателей C2  : Нет
Коррекция смещения при чтении                     : 6
Способность читать области Lead-in и Lead-out     : Нет
Заполнение пропущенных сэмплов тишиной            : Да
Удаление блоков с тишиной в начале и конце        : Нет
При вычислениях CRC использовались нулевые сэмплы : Да
Интерфейс                                         : Встроенный Win32-интерфейс для Win NT/2000
Выходной формат          : Пользовательский кодировщик
Выбранный битрейт        : 768 kBit/s
Качество                 : Высокий
Добавление ID3-тега      : Нет
Утилита сжатия           : C:\Program Files\Exact Audio Copy\FLAC\FLAC.EXE
Дополнительные параметры : -6 -V -T "ARTIST=%artist%" -T "TITLE=%title%" -T "ALBUM=%albumtitle%" -T "DATE=%year%" -T "TRACKNUMBER=%tracknr%" -T "GENRE=%genre%" -T "COMMENT=%comment%" -T "BAND=%albuminterpret%" -T "ALBUMARTIST=%albuminterpret%" -T "COMPOSER=%composer%" %haslyrics%--tag-from-file=LYRICS="%lyricsfile%"%haslyrics% -T "DISCNUMBER=%cdnumber%" -T "TOTALDISCS=%totalcds%" -T "TOTALTRACKS=%numtracks%" %hascover%--picture="%coverfile%"%hascover% %source% -o %dest%
TOC извлечённого CD
     Трек |   Старт  | Длительность | Начальный сектор | Конечный сектор
    ---------------------------------------------------------------------
       1  |  0:00.00 |    5:04.45   |           0      |      22844
       2  |  5:04.45 |    4:37.29   |       22845      |      43648
       3  |  9:41.74 |    4:11.19   |       43649      |      62492
       4  | 13:53.18 |    4:40.34   |       62493      |      83526
       5  | 18:33.52 |    3:29.01   |       83527      |      99202
       6  | 22:02.53 |    5:30.16   |       99203      |     123968
       7  | 27:32.69 |    4:40.47   |      123969      |     145015
       8  | 32:13.41 |    4:25.26   |      145016      |     164916
       9  | 36:38.67 |    4:15.31   |      164917      |     184072
      10  | 40:54.23 |    4:11.30   |      184073      |     202927
Характеристики диапазона извлечения и сообщения об ошибках
Выбранный диапазон
     Имя файла F:\My Uploads 03.10.17\Jeff Kashiwa - Fly Away  2017  45'07''\Jeff Kashiwa - Fly Away.wav
     Пиковый уровень 100.0 %
     Скорость извлечения 3.1 X
     Качество диапазона 100.0 %
     CRC теста 8E64357D
     CRC копии 8E64357D
     Копирование... OK
Ошибок не произошло
Конец отчёта
---- CUETools DB Plugin V2.1.6
[CTDB TOCID: WBTcawBktMmoXFrm.CpQfKJISNo-] found
Submit result: WBTcawBktMmoXFrm.CpQfKJISNo- has been confirmed
Track | CTDB Status
  1   | (1/1) Accurately ripped
  2   | (1/1) Accurately ripped
  3   | (1/1) Accurately ripped
  4   | (1/1) Accurately ripped
  5   | (1/1) Accurately ripped
  6   | (1/1) Accurately ripped
  7   | (1/1) Accurately ripped
  8   | (1/1) Accurately ripped
  9   | (1/1) Accurately ripped
 10   | (1/1) Accurately ripped
==== Контрольная сумма отчёта DB492ABB80B9C32CBE9D3B876B146ABBA8DAC5681268C290149B881CB419DD88 ====
Содержание индексной карты (.CUE)
REM GENRE Jazz
REM DATE 2017
REM DISCID 740A910A
REM COMMENT "ExactAudioCopy v1.3"
PERFORMER "Jeff Kashiwa"
TITLE "Fly Away"
REM COMPOSER ""
FILE "Jeff Kashiwa - Fly Away.flac" WAVE
  TRACK 01 AUDIO
    TITLE "Side By Side"
    PERFORMER "Jeff Kashiwa"
    REM COMPOSER ""
    INDEX 01 00:00:00
  TRACK 02 AUDIO
    TITLE "Fly Away"
    PERFORMER "Jeff Kashiwa"
    REM COMPOSER ""
    INDEX 01 05:04:45
  TRACK 03 AUDIO
    TITLE "Lullalo"
    PERFORMER "Jeff Kashiwa"
    REM COMPOSER ""
    INDEX 01 09:41:74
  TRACK 04 AUDIO
    TITLE "Do It Again"
    PERFORMER "Jeff Kashiwa"
    REM COMPOSER ""
    INDEX 01 13:53:18
  TRACK 05 AUDIO
    TITLE "Solstice"
    PERFORMER "Jeff Kashiwa"
    REM COMPOSER ""
    INDEX 01 18:33:52
  TRACK 06 AUDIO
    TITLE "Six Of One"
    PERFORMER "Jeff Kashiwa"
    REM COMPOSER ""
    INDEX 01 22:02:53
  TRACK 07 AUDIO
    TITLE "7th Heaven"
    PERFORMER "Jeff Kashiwa"
    REM COMPOSER ""
    INDEX 01 27:32:69
  TRACK 08 AUDIO
    TITLE "August Nights"
    PERFORMER "Jeff Kashiwa"
    REM COMPOSER ""
    INDEX 01 32:13:41
  TRACK 09 AUDIO
    TITLE "The Long Road"
    PERFORMER "Jeff Kashiwa"
    REM COMPOSER ""
    INDEX 01 36:38:67
  TRACK 10 AUDIO
    TITLE "The Sun Will Shine"
    PERFORMER "Jeff Kashiwa"
    REM COMPOSER ""
    INDEX 01 40:54:23
Лог проверки качества
-----------------------

DON'T MODIFY THIS FILE

-----------------------

PERFORMER: auCDtect Task Manager, ver. 1.6.0 RC1 build 1.6.0.1
Copyright (c) 2008-2010 y-soft. All rights reserved
http://y-soft.org

ANALYZER: auCDtect: CD records authenticity detector, version 0.8.2
Copyright (c) 2004 Oleg Berngardt. All rights reserved.
Copyright (c) 2004 Alexander Djourik. All rights reserved.

FILE: Jeff Kashiwa - Fly Away.flac
  Size: 326000840 Hash: 1F09B8CD2D8DD045FBDF4CDBE0721D2E Accuracy: -m0
  Conclusion: CDDA 99%
  Signature: D2523DA7ECB1E0978F354B8B22EFA39C5DA47A3F
Приватный:
Нет (DHT включён)
Размер:
387.47 Мб (406,292,103 байт) » файлов: 11
Участники:
0 раздают, 0 качают (0 участников всего)
Внешние участники:
19 раздают, 6 качают (25 участников всего) [ Обновить ]
20:25
67
RSS
Нет комментариев. Ваш будет первым!