2017 Heads Of State - Four In One

2017 Heads Of State - Four In One
Стили:
Страна-производитель диска (релиза):
USA
Дата записи диска:
1 ноября 2016
Дата издания диска:
2017
Номер по каталогу:
SSR 1702
Носитель:
CD
Битрейт аудио:
lossless
Аудиокодек:
FLAC (*.flac)
Тип рипа:
tracks+.cue
Время звучания:
72:22
Наличие сканов:
  • нет
Релизёр (источник):
SERTiL
Треклист:

01. Four in One (7:18)
02. And He Called Himself A Messenger (4:26)
03. Dance Cadaverous (10:02)
04. Moose the Mooche (5:29)
05. Aloysius (6:38)
06. The Day You Said Goodbye (7:55)
07. Milestones (4:49)
08. Keep the Master in Mind (6:58)
09. Someone to Watch Over Me (8:13)
10. Sippin' at Bells (3:57)
11. Freedom Jazz Dance (6:38)

Состав:

Rec.: Sear Sound, Studio C, New York City, NY, November 1, 2016.
<spoiler title="Лог создания рипа"><pre>
Exact Audio Copy V1.3 from 2. September 2016
EAC extraction logfile from 20. June 2017, 1:29
Heads of State / Four in One
Used drive : ATAPI iHAS124 F Adapter: 1 ID: 0
Read mode : Secure
Utilize accurate stream : Yes
Defeat audio cache : Yes
Make use of C2 pointers : No
Read offset correction : 6
Overread into Lead-In and Lead-Out : No
Fill up missing offset samples with silence : Yes
Delete leading and trailing silent blocks : No
Null samples used in CRC calculations : Yes
Used interface : Native Win32 interface for Win NT & 2000
Gap handling : Appended to previous track
Used output format : User Defined Encoder
Selected bitrate : 1024 kBit/s
Quality : High
Add ID3 tag : No
Command line compressor : C:\Program Files (x86)\Exact Audio Copy\Flac\flac.exe
Additional command line options : -8 -e -p -V -T "ARTIST=%artist%" -T "TITLE=%title%" -T "ALBUM=%albumtitle%" -T "DATE=%year%" -T "TRACKNUMBER=%tracknr%" -T "GENRE=%genre%" -T "PERFORMER=%albuminterpret%" -T "COMPOSER=%composer%" %haslyrics%--tag-from-file=LYRICS="%lyricsfile%"%haslyrics% -T "ALBUMARTIST=%albumartist%" -T "DISCNUMBER=%cdnumber%" -T "TOTALDISCS=%totalcds%" -T "TOTALTRACKS=%numtracks%" -T "COMMENT=%comment%" %source% -o %dest%
TOC of the extracted CD Track | Start | Length | Start sector | End sector --------------------------------------------------------- 1 | 0:00.00 | 7:18.28 | 0 | 32877 2 | 7:18.28 | 4:26.16 | 32878 | 52843 3 | 11:44.44 | 10:01.70 | 52844 | 97988 4 | 21:46.39 | 5:28.61 | 97989 | 122649 5 | 27:15.25 | 6:37.49 | 122650 | 152473 6 | 33:52.74 | 7:54.74 | 152474 | 188097 7 | 41:47.73 | 4:48.56 | 188098 | 209753 8 | 46:36.54 | 6:57.49 | 209754 | 241077 9 | 53:34.28 | 8:12.52 | 241078 | 278029 10 | 61:47.05 | 3:56.53 | 278030 | 295782 11 | 65:43.58 | 6:38.21 | 295783 | 325653
Track 1 Filename C:\EAC\Heads of State - Four in One (2017) [CD FLAC]\01 - Four in One.wav Pre-gap length 0:00:02.00 Peak level 99.8 % Extraction speed 5.9 X Track quality 100.0 % Test CRC 16E1E93A Copy CRC 16E1E93A Track not present in AccurateRip database Copy OK
Track 2 Filename C:\EAC\Heads of State - Four in One (2017) [CD FLAC]\02 - And He Called Himself A Messenger.wav Peak level 99.8 % Extraction speed 5.4 X Track quality 99.9 % Test CRC 72593A21 Copy CRC 72593A21 Track not present in AccurateRip database Copy OK
Track 3 Filename C:\EAC\Heads of State - Four in One (2017) [CD FLAC]\03 - Dance Cadaverous.wav Peak level 99.8 % Extraction speed 7.0 X Track quality 99.9 % Test CRC AA7B1D6C Copy CRC AA7B1D6C Track not present in AccurateRip database Copy OK
Track 4 Filename C:\EAC\Heads of State - Four in One (2017) [CD FLAC]\04 - Moose the Mooche.wav Peak level 99.8 % Extraction speed 8.2 X Track quality 100.0 % Test CRC 768843DA Copy CRC 768843DA Track not present in AccurateRip database Copy OK
Track 5 Filename C:\EAC\Heads of State - Four in One (2017) [CD FLAC]\05 - Aloysius.wav Peak level 99.8 % Extraction speed 8.8 X Track quality 100.0 % Test CRC F7D2F2E8 Copy CRC F7D2F2E8 Track not present in AccurateRip database Copy OK
Track 6 Filename C:\EAC\Heads of State - Four in One (2017) [CD FLAC]\06 - The Day You Said Goodbye.wav Peak level 99.0 % Extraction speed 9.3 X Track quality 100.0 % Test CRC EA3FF142 Copy CRC EA3FF142 Track not present in AccurateRip database Copy OK
Track 7 Filename C:\EAC\Heads of State - Four in One (2017) [CD FLAC]\07 - Milestones.wav Peak level 99.8 % Extraction speed 9.6 X Track quality 100.0 % Test CRC 2953C5F1 Copy CRC 2953C5F1 Track not present in AccurateRip database Copy OK
Track 8 Filename C:\EAC\Heads of State - Four in One (2017) [CD FLAC]\08 - Keep the Master in Mind.wav Peak level 99.7 % Extraction speed 9.0 X Track quality 99.9 % Test CRC 3FC4CFD2 Copy CRC 3FC4CFD2 Track not present in AccurateRip database Copy OK
Track 9 Filename C:\EAC\Heads of State - Four in One (2017) [CD FLAC]\09 - Someone to Watch Over Me.wav Peak level 98.8 % Extraction speed 9.8 X Track quality 99.9 % Test CRC F961F02B Copy CRC F961F02B Track not present in AccurateRip database Copy OK
Track 10 Filename C:\EAC\Heads of State - Four in One (2017) [CD FLAC]\10 - Sippin' at Bells.wav Peak level 99.8 % Extraction speed 9.0 X Track quality 99.9 % Test CRC B9038BD8 Copy CRC B9038BD8 Track not present in AccurateRip database Copy OK
Track 11 Filename C:\EAC\Heads of State - Four in One (2017) [CD FLAC]\11 - Freedom Jazz Dance.wav Peak level 99.8 % Extraction speed 11.3 X Track quality 100.0 % Test CRC F06ECE33 Copy CRC F06ECE33 Track not present in AccurateRip database Copy OK
None of the tracks are present in the AccurateRip database
No errors occurred
End of status report
---- CUETools DB Plugin V2.1.6
[CTDB TOCID: C9g_eSjmkUnllNa4gS_wcaMiynM-] found
Submit result: C9g_eSjmkUnllNa4gS_wcaMiynM- has been confirmed
Track | CTDB Status 1 | (2/2) Accurately ripped 2 | (2/2) Accurately ripped 3 | (2/2) Accurately ripped 4 | (2/2) Accurately ripped 5 | (2/2) Accurately ripped 6 | (2/2) Accurately ripped 7 | (2/2) Accurately ripped 8 | (2/2) Accurately ripped 9 | (2/2) Accurately ripped 10 | (2/2) Accurately ripped 11 | (2/2) Accurately ripped
==== Log checksum 7C79776C2FEED66F81A4E551ED164034BE80318C4C256D10C9B8211B713B0B15 ====
<spoiler title="Содержание индексной карты (.CUE)"><pre>
REM GENRE Jazz
REM DATE 2017
REM DISCID 9B10F60B
REM COMMENT "ExactAudioCopy v1.3"
CATALOG 0888295533577
PERFORMER "Heads of State"
TITLE "Four in One"
REM COMPOSER ""
FILE "01 - Four in One.wav" WAVE TRACK 01 AUDIO TITLE "Four in One" PERFORMER "Heads of State" REM COMPOSER "Thelonious Monk" ISRC QMCAL1600061 INDEX 01 00:00:00
FILE "02 - And He Called Himself A Messenger.wav" WAVE TRACK 02 AUDIO TITLE "And He Called Himself A Messenger" PERFORMER "Heads of State" REM COMPOSER "Gary Bartz" ISRC QMCAL1600062 INDEX 01 00:00:00
FILE "03 - Dance Cadaverous.wav" WAVE TRACK 03 AUDIO TITLE "Dance Cadaverous" PERFORMER "Heads of State" REM COMPOSER "Wayne Shorter" ISRC QMCAL1600063 INDEX 01 00:00:00
FILE "04 - Moose the Mooche.wav" WAVE TRACK 04 AUDIO TITLE "Moose the Mooche" PERFORMER "Heads of State" REM COMPOSER "Charlie Parker" ISRC QMCAL1600064 INDEX 01 00:00:00
FILE "05 - Aloysius.wav" WAVE TRACK 05 AUDIO TITLE "Aloysius" PERFORMER "Heads of State" REM COMPOSER "Al Foster" ISRC QMCAL1600065 INDEX 01 00:00:00
FILE "06 - The Day You Said Goodbye.wav" WAVE TRACK 06 AUDIO TITLE "The Day You Said Goodbye" PERFORMER "Heads of State" REM COMPOSER "Larry Willis" ISRC QMCAL1600066 INDEX 01 00:00:00
FILE "07 - Milestones.wav" WAVE TRACK 07 AUDIO TITLE "Milestones" PERFORMER "Heads of State" REM COMPOSER "John Lewis" ISRC QMCAL1600067 INDEX 01 00:00:00
FILE "08 - Keep the Master in Mind.wav" WAVE TRACK 08 AUDIO TITLE "Keep the Master in Mind" PERFORMER "Heads of State" REM COMPOSER "David Williams" ISRC QMCAL1600068 INDEX 01 00:00:00
FILE "09 - Someone to Watch Over Me.wav" WAVE TRACK 09 AUDIO TITLE "Someone to Watch Over Me" PERFORMER "Heads of State" REM COMPOSER "George Gershwin, Ira Gershwin" ISRC QMCAL1600069 INDEX 01 00:00:00
FILE "10 - Sippin' at Bells.wav" WAVE TRACK 10 AUDIO TITLE "Sippin' at Bells" PERFORMER "Heads of State" REM COMPOSER "Miles Davis" ISRC QMCAL1600070 INDEX 01 00:00:00
FILE "11 - Freedom Jazz Dance.wav" WAVE TRACK 11 AUDIO TITLE "Freedom Jazz Dance" PERFORMER "Heads of State" REM COMPOSER "Eddie Harris" ISRC QMCAL1600071 INDEX 01 00:00:00
Приватный Нет (DHT включён)
Хэш 0B0444048093C445B0011C4ED44A375E198B63A2
Размер 433.21 Мб (454,257,514 байт) » файлов: 17 [ Список файлов ]
Участники 0 раздают, 0 качают (0 участников всего)
Внешние участники 7 раздают, 2 качают (9 участников всего)
Скорость Сейчас никто не качает
15:28
76
RSS
Нет комментариев. Ваш будет первым!