Поиск

2017 Gary Peacock Trio - Tangents {ECM 2533}

2017 Gary Peacock Trio - Tangents {ECM 2533}
Стили:
Страна-производитель диска (релиза):
Germany
Дата записи диска:
май 2016
Дата издания диска:
9 июня 2017
Издатель (лейбл):
Номер по каталогу:
ECM 2533
Носитель:
CD
Битрейт аудио:
lossless
Аудиокодек:
FLAC (*.flac)
Тип рипа:
tracks+.cue
Время звучания:
00:53:10
Наличие сканов:
  • да
Релизёр (источник):
Anonymous
Треклист:

01. Contact [06:39]
02. December Greenwings [04:50]
03. Tempei Tempo [04:10]
04. Cauldron [02:29]
05. Spartacus [05:10]
06. Empty Forest [07:11]
07. Blue In Green [04:42]
08. Rumblin' [04:07]
09. Talkin' Blues [04:04]
10. In And Out [02:53]
11. Tangents [06:50]

Состав:
  • Stefano Amerio    Engineer
  • Joey Baron    Composer, Drums
  • Marc Copland    Composer, Piano
  • Manfred Eicher    Producer
  • Gary Peacock    Composer, Double Bass

Записано в 

  • Auditorio Stelio Molo RSI, Lugano
Лог создания рипа
Exact Audio Copy V1.1 from 23. June 2015

EAC extraction logfile from 23. October 2017, 18:59

Gary Peacock Trio / Tangents

Used drive  : TSSTcorpCDDVDW SH-224FB   Adapter: 1  ID: 0

Read mode               : Secure
Utilize accurate stream : Yes
Defeat audio cache      : Yes
Make use of C2 pointers : No

Read offset correction                      : 6
Overread into Lead-In and Lead-Out          : No
Fill up missing offset samples with silence : Yes
Delete leading and trailing silent blocks   : No
Null samples used in CRC calculations       : Yes
Used interface                              : Native Win32 interface for Win NT & 2000
Gap handling                                : Appended to previous track

Used output format              : User Defined Encoder
Selected bitrate                : 128 kBit/s
Quality                         : High
Add ID3 tag                     : No
Command line compressor         : C:\Program Files (x86)\Exact Audio Copy\Flac\flac.exe
Additional command line options : -8 -V -T "ARTIST=%artist%" -T "TITLE=%title%" -T "ALBUM=%albumtitle%" -T "DATE=%year%" -T "TRACKNUMBER=%tracknr%" -T "TOTALTRACKS=%numtracks%" -T "GENRE=%genre%" -T "ALBUMARTIST=%albumartist%" -T "ALBUM ARTIST=%albumartist%" -T "COMMENT=EAC Secure Mode, Test & Copy, AccurateRip, FLAC -8" %source%

TOC of the extracted CD

     Track |   Start  |  Length  | Start sector | End sector
    ---------------------------------------------------------
        1  |  0:00.00 |  6:39.65 |         0    |    29989
        2  |  6:39.65 |  4:50.02 |     29990    |    51741
        3  | 11:29.67 |  4:10.45 |     51742    |    70536
        4  | 15:40.37 |  2:29.53 |     70537    |    81764
        5  | 18:10.15 |  5:10.11 |     81765    |   105025
        6  | 23:20.26 |  7:11.24 |    105026    |   137374
        7  | 30:31.50 |  4:42.66 |    137375    |   158590
        8  | 35:14.41 |  4:07.63 |    158591    |   177178
        9  | 39:22.29 |  4:04.66 |    177179    |   195544
       10  | 43:27.20 |  2:53.00 |    195545    |   208519
       11  | 46:20.20 |  6:50.08 |    208520    |   239277

Track  1

     Filename H:\MY RIPS\01 - Contact.wav

     Pre-gap length  0:00:02.00

     Peak level 92.3 %
     Extraction speed 1.9 X
     Track quality 100.0 %
     Test CRC E57308C4
     Copy CRC E57308C4
     Accurately ripped (confidence 6)  [6ECBB8E3]  (AR v2)
     Copy OK

Track  2

     Filename H:\MY RIPS\02 - December Greenwings.wav

     Peak level 89.2 %
     Extraction speed 2.1 X
     Track quality 100.0 %
     Test CRC E19AA50D
     Copy CRC E19AA50D
     Accurately ripped (confidence 6)  [817F68C8]  (AR v2)
     Copy OK

Track  3

     Filename H:\MY RIPS\03 - Tempei Tempo.wav

     Peak level 83.6 %
     Extraction speed 2.2 X
     Track quality 100.0 %
     Test CRC DC177A4F
     Copy CRC DC177A4F
     Accurately ripped (confidence 6)  [8A8E1265]  (AR v2)
     Copy OK

Track  4

     Filename H:\MY RIPS\04 - Cauldron.wav

     Peak level 96.5 %
     Extraction speed 1.7 X
     Track quality 99.9 %
     Test CRC E7C66698
     Copy CRC E7C66698
     Accurately ripped (confidence 6)  [CAF2BA53]  (AR v2)
     Copy OK

Track  5

     Filename H:\MY RIPS\05 - Spartacus.wav

     Peak level 82.6 %
     Extraction speed 2.6 X
     Track quality 100.0 %
     Test CRC 5C11F632
     Copy CRC 5C11F632
     Accurately ripped (confidence 6)  [A9109264]  (AR v2)
     Copy OK

Track  6

     Filename H:\MY RIPS\06 - Empty Forest.wav

     Peak level 73.9 %
     Extraction speed 2.9 X
     Track quality 100.0 %
     Test CRC B80FC36B
     Copy CRC B80FC36B
     Accurately ripped (confidence 6)  [BC2F538C]  (AR v2)
     Copy OK

Track  7

     Filename H:\MY RIPS\07 - Blue In Green.wav

     Peak level 71.6 %
     Extraction speed 2.4 X
     Track quality 99.9 %
     Test CRC CE0B814F
     Copy CRC CE0B814F
     Accurately ripped (confidence 6)  [EB72972C]  (AR v2)
     Copy OK

Track  8

     Filename H:\MY RIPS\08 - Rumblin'.wav

     Peak level 95.7 %
     Extraction speed 3.0 X
     Track quality 100.0 %
     Test CRC C0324F1F
     Copy CRC C0324F1F
     Accurately ripped (confidence 6)  [65643A73]  (AR v2)
     Copy OK

Track  9

     Filename H:\MY RIPS\09 - Talkin' Blues.wav

     Peak level 85.5 %
     Extraction speed 3.1 X
     Track quality 100.0 %
     Test CRC D502B6B2
     Copy CRC D502B6B2
     Accurately ripped (confidence 6)  [66973F20]  (AR v2)
     Copy OK

Track 10

     Filename H:\MY RIPS\10 - In And Out.wav

     Peak level 70.2 %
     Extraction speed 2.2 X
     Track quality 99.9 %
     Test CRC C24FB913
     Copy CRC C24FB913
     Accurately ripped (confidence 6)  [AE8F5EC0]  (AR v2)
     Copy OK

Track 11

     Filename H:\MY RIPS\11 - Tangents.wav

     Peak level 81.2 %
     Extraction speed 3.5 X
     Track quality 100.0 %
     Test CRC 838320DC
     Copy CRC 838320DC
     Accurately ripped (confidence 6)  [2526C5A8]  (AR v2)
     Copy OK

All tracks accurately ripped

No errors occurred

End of status report

---- CUETools DB Plugin V2.1.6

[CTDB TOCID: KijRIMmfb1Yed_roo5Pf2uxvta0-] found
Submit result: KijRIMmfb1Yed_roo5Pf2uxvta0- has been confirmed
Track | CTDB Status
  1   | (32/32) Accurately ripped
  2   | (32/32) Accurately ripped
  3   | (32/32) Accurately ripped
  4   | (32/32) Accurately ripped
  5   | (32/32) Accurately ripped
  6   | (32/32) Accurately ripped
  7   | (32/32) Accurately ripped
  8   | (32/32) Accurately ripped
  9   | (32/32) Accurately ripped
 10   | (32/32) Accurately ripped
 11   | (32/32) Accurately ripped

==== Log checksum D54DF8086396D5CAE23F4220F01D0BA53B9C28A3F66E344255A3C9039AD30389 ====
Содержание индексной карты (.CUE)
REM GENRE Jazz
REM DATE 2017
REM DISCID 850C760B
REM COMMENT "ExactAudioCopy v1.1"
PERFORMER "Gary Peacock Trio"
TITLE "Tangents"
FILE "01 - Contact.wav" WAVE
  TRACK 01 AUDIO
    TITLE "Contact"
    PERFORMER "Gary Peacock Trio"
    INDEX 01 00:00:00
FILE "02 - December Greenwings.wav" WAVE
  TRACK 02 AUDIO
    TITLE "December Greenwings"
    PERFORMER "Gary Peacock Trio"
    INDEX 01 00:00:00
FILE "03 - Tempei Tempo.wav" WAVE
  TRACK 03 AUDIO
    TITLE "Tempei Tempo"
    PERFORMER "Gary Peacock Trio"
    INDEX 01 00:00:00
FILE "04 - Cauldron.wav" WAVE
  TRACK 04 AUDIO
    TITLE "Cauldron"
    PERFORMER "Gary Peacock Trio"
    INDEX 01 00:00:00
FILE "05 - Spartacus.wav" WAVE
  TRACK 05 AUDIO
    TITLE "Spartacus"
    PERFORMER "Gary Peacock Trio"
    INDEX 01 00:00:00
FILE "06 - Empty Forest.wav" WAVE
  TRACK 06 AUDIO
    TITLE "Empty Forest"
    PERFORMER "Gary Peacock Trio"
    INDEX 01 00:00:00
FILE "07 - Blue In Green.wav" WAVE
  TRACK 07 AUDIO
    TITLE "Blue In Green"
    PERFORMER "Gary Peacock Trio"
    INDEX 01 00:00:00
FILE "08 - Rumblin'.wav" WAVE
  TRACK 08 AUDIO
    TITLE "Rumblin'"
    PERFORMER "Gary Peacock Trio"
    INDEX 01 00:00:00
FILE "09 - Talkin' Blues.wav" WAVE
  TRACK 09 AUDIO
    TITLE "Talkin' Blues"
    PERFORMER "Gary Peacock Trio"
    INDEX 01 00:00:00
FILE "10 - In And Out.wav" WAVE
  TRACK 10 AUDIO
    TITLE "In And Out"
    PERFORMER "Gary Peacock Trio"
    INDEX 01 00:00:00
FILE "11 - Tangents.wav" WAVE
  TRACK 11 AUDIO
    TITLE "Tangents"
    PERFORMER "Gary Peacock Trio"
    INDEX 01 00:00:00
Приватный:
Нет (DHT включён)
Размер:
248.25 Мб (260,313,953 байт) » файлов: 26
Участники:
0 раздают, 0 качают (0 участников всего)
Внешние участники:
34 раздают, 11 качают (45 участников всего) [ Обновить ]
19:46
71
RSS
Нет комментариев. Ваш будет первым!