Поиск

2017 Eric Schaefer - Kyoto Mon Amour {ACT 9835-2}

2017 Eric Schaefer - Kyoto Mon Amour {ACT 9835-2}
Стили:
Страна-производитель диска (релиза):
Germany
Дата записи диска:
30 ноября - 1 декабря 2016
Дата издания диска:
2017
Издатель (лейбл):
Номер по каталогу:
ACT 9835-2
Носитель:
CD
Битрейт аудио:
lossless
Аудиокодек:
FLAC (*.flac)
Тип рипа:
tracks+.cue
Время звучания:
00:49:55
Наличие сканов:
  • да
Релизёр (источник):
dtromp
Треклист:

01. Shoshu-san [03:49]
02. Kussa Karu Otome [05:07]
03. Santôka's Walk [04:22]
04. Hiroshima mon Amour [07:05]
05. Tengu [03:08]
06. Hiei-zan Nightfall [04:30]
07. Tohoku [05:17]
08. Rokudan [03:11]
09. Ticket To Osaka [02:43]
10. Shadow In The Woods [03:41]
11. Kansai Two-Face [04:23]
12. Pavane de la Belle au bois dormant [02:33]

Состав:
  • Kazutoki Umezu / clarinet & bass clarinet
  • Naoko Kikuchi / koto
  • John Eckhardt / bass
  • Eric Schaefer / drums
Лог создания рипа
Exact Audio Copy V1.3 from 2. September 2016

EAC extraction logfile from 12. November 2017, 15:56

Eric Schaefer / Kyoto mon Amour

Used drive  : ATAPI   iHBS112   2   Adapter: 1  ID: 1

Read mode               : Secure
Utilize accurate stream : Yes
Defeat audio cache      : Yes
Make use of C2 pointers : No

Read offset correction                      : 6
Overread into Lead-In and Lead-Out          : No
Fill up missing offset samples with silence : Yes
Delete leading and trailing silent blocks   : No
Null samples used in CRC calculations       : Yes
Used interface                              : Native Win32 interface for Win NT & 2000
Gap handling                                : Appended to previous track

Used output format              : User Defined Encoder
Selected bitrate                : 128 kBit/s
Quality                         : High
Add ID3 tag                     : No
Command line compressor         : C:\Program Files (x86)\Exact Audio Copy\Flac\flac.exe
Additional command line options : -8 -V -T "ARTIST=%artist%" -T "TITLE=%title%" -T "ALBUM=%albumtitle%" -T "DATE=%year%" -T "TRACKNUMBER=%tracknr%" -T "GENRE=%genre%" -T "PERFORMER=%albuminterpret%" -T "COMPOSER=%composer%" -T "ALBUMARTIST=%albumartist%" -T "DISCNUMBER=%cdnumber%" -T "TOTALDISCS=%totalcds%" -T "TOTALTRACKS=%numtracks%" -T "COMMENT=EAC Secure Mode, Test & Copy, AccurateRip, FLAC -8" %source% -o %dest%

TOC of the extracted CD

     Track |   Start  |  Length  | Start sector | End sector
    ---------------------------------------------------------
        1  |  0:00.00 |  3:49.43 |         0    |    17217
        2  |  3:49.43 |  5:07.52 |     17218    |    40294
        3  |  8:57.20 |  4:22.09 |     40295    |    59953
        4  | 13:19.29 |  7:05.27 |     59954    |    91855
        5  | 20:24.56 |  3:08.08 |     91856    |   105963
        6  | 23:32.64 |  4:30.11 |    105964    |   126224
        7  | 28:03.00 |  5:17.54 |    126225    |   150053
        8  | 33:20.54 |  3:11.63 |    150054    |   164441
        9  | 36:32.42 |  2:43.20 |    164442    |   176686
       10  | 39:15.62 |  3:41.60 |    176687    |   193321
       11  | 42:57.47 |  4:23.71 |    193322    |   213117
       12  | 47:21.43 |  2:33.45 |    213118    |   224637

Track  1

     Filename H:\DL\Eric Schaefer - Kyoto mon Amour (2017) [FLAC]\01 - Shoshu-san.wav

     Pre-gap length  0:00:02.00

     Peak level 91.4 %
     Extraction speed 5.1 X
     Track quality 100.0 %
     Test CRC 2AB5597B
     Copy CRC 2AB5597B
     Accurately ripped (confidence 5)  [BCDE714C]  (AR v2)
     Copy OK

Track  2

     Filename H:\DL\Eric Schaefer - Kyoto mon Amour (2017) [FLAC]\02 - Kussa Karu Otome.wav

     Peak level 92.4 %
     Extraction speed 5.9 X
     Track quality 100.0 %
     Test CRC 5C122B5A
     Copy CRC 5C122B5A
     Accurately ripped (confidence 5)  [21384E40]  (AR v2)
     Copy OK

Track  3

     Filename H:\DL\Eric Schaefer - Kyoto mon Amour (2017) [FLAC]\03 - Santoka's Walk.wav

     Peak level 91.6 %
     Extraction speed 6.4 X
     Track quality 100.0 %
     Test CRC 406FF137
     Copy CRC 406FF137
     Accurately ripped (confidence 5)  [4172239F]  (AR v2)
     Copy OK

Track  4

     Filename H:\DL\Eric Schaefer - Kyoto mon Amour (2017) [FLAC]\04 - Hiroshima mon Amour.wav

     Peak level 91.3 %
     Extraction speed 7.4 X
     Track quality 100.0 %
     Test CRC 9A33C17D
     Copy CRC 9A33C17D
     Accurately ripped (confidence 5)  [64947270]  (AR v2)
     Copy OK

Track  5

     Filename H:\DL\Eric Schaefer - Kyoto mon Amour (2017) [FLAC]\05 - Tengu.wav

     Peak level 91.9 %
     Extraction speed 7.2 X
     Track quality 100.0 %
     Test CRC 05AC7F97
     Copy CRC 05AC7F97
     Accurately ripped (confidence 5)  [845455FC]  (AR v2)
     Copy OK

Track  6

     Filename H:\DL\Eric Schaefer - Kyoto mon Amour (2017) [FLAC]\06 - Hiei-zan Nightfall.wav

     Peak level 91.5 %
     Extraction speed 8.0 X
     Track quality 100.0 %
     Test CRC 533F2A61
     Copy CRC 533F2A61
     Accurately ripped (confidence 5)  [DD05B32A]  (AR v2)
     Copy OK

Track  7

     Filename H:\DL\Eric Schaefer - Kyoto mon Amour (2017) [FLAC]\07 - Tohoku.wav

     Peak level 77.1 %
     Extraction speed 7.3 X
     Track quality 99.9 %
     Test CRC 4398236E
     Copy CRC 4398236E
     Accurately ripped (confidence 5)  [A843C015]  (AR v2)
     Copy OK

Track  8

     Filename H:\DL\Eric Schaefer - Kyoto mon Amour (2017) [FLAC]\08 - Rokudan.wav

     Peak level 91.3 %
     Extraction speed 8.4 X
     Track quality 100.0 %
     Test CRC 88D8A567
     Copy CRC 88D8A567
     Accurately ripped (confidence 5)  [95804520]  (AR v2)
     Copy OK

Track  9

     Filename H:\DL\Eric Schaefer - Kyoto mon Amour (2017) [FLAC]\09 - Ticket To Osaka.wav

     Peak level 91.4 %
     Extraction speed 8.3 X
     Track quality 100.0 %
     Test CRC 0574546C
     Copy CRC 0574546C
     Accurately ripped (confidence 5)  [19626E04]  (AR v2)
     Copy OK

Track 10

     Filename H:\DL\Eric Schaefer - Kyoto mon Amour (2017) [FLAC]\10 - Shadow In The Woods.wav

     Peak level 91.5 %
     Extraction speed 8.9 X
     Track quality 100.0 %
     Test CRC 45ADD70C
     Copy CRC 45ADD70C
     Accurately ripped (confidence 5)  [06AD4F3F]  (AR v2)
     Copy OK

Track 11

     Filename H:\DL\Eric Schaefer - Kyoto mon Amour (2017) [FLAC]\11 - Kansai Two-Face.wav

     Peak level 91.4 %
     Extraction speed 7.9 X
     Track quality 99.9 %
     Test CRC 9396EB92
     Copy CRC 9396EB92
     Accurately ripped (confidence 5)  [4EC5EF0D]  (AR v2)
     Copy OK

Track 12

     Filename H:\DL\Eric Schaefer - Kyoto mon Amour (2017) [FLAC]\12 - Pavane de la Belle au bois dormant.wav

     Pre-gap length  0:00:00.22

     Peak level 91.3 %
     Extraction speed 8.8 X
     Track quality 100.0 %
     Test CRC 0A9EA31E
     Copy CRC 0A9EA31E
     Accurately ripped (confidence 5)  [1575B031]  (AR v2)
     Copy OK

All tracks accurately ripped

No errors occurred

End of status report

---- CUETools DB Plugin V2.1.6

[CTDB TOCID: aVmac6FldeiVp5sJi6URnf71N7s-] found
Submit result: aVmac6FldeiVp5sJi6URnf71N7s- has been confirmed
Track | CTDB Status
  1   | (15/15) Accurately ripped
  2   | (15/15) Accurately ripped
  3   | (15/15) Accurately ripped
  4   | (15/15) Accurately ripped
  5   | (15/15) Accurately ripped
  6   | (15/15) Accurately ripped
  7   | (15/15) Accurately ripped
  8   | (15/15) Accurately ripped
  9   | (15/15) Accurately ripped
 10   | (15/15) Accurately ripped
 11   | (15/15) Accurately ripped
 12   | (15/15) Accurately ripped

==== Log checksum 892504AF67478C3B6357527859934FF7693B30FDC175BCA9481A005ABC1751AD ====
Содержание индексной карты (.CUE)
REM GENRE Jazz
REM DATE 2017
REM DISCID 980BB30C
REM COMMENT "ExactAudioCopy v1.3"
PERFORMER "Eric Schaefer"
TITLE "Kyoto mon Amour"
REM COMPOSER ""
FILE "01 - Shoshu-san.wav" WAVE
  TRACK 01 AUDIO
    TITLE "Shoshu-san"
    PERFORMER "Eric Schaefer"
    REM COMPOSER ""
    INDEX 01 00:00:00
FILE "02 - Kussa Karu Otome.wav" WAVE
  TRACK 02 AUDIO
    TITLE "Kussa Karu Otome"
    PERFORMER "Eric Schaefer"
    REM COMPOSER ""
    INDEX 01 00:00:00
FILE "03 - Santoka's Walk.wav" WAVE
  TRACK 03 AUDIO
    TITLE "Santфka's Walk"
    PERFORMER "Eric Schaefer"
    REM COMPOSER ""
    INDEX 01 00:00:00
FILE "04 - Hiroshima mon Amour.wav" WAVE
  TRACK 04 AUDIO
    TITLE "Hiroshima mon Amour"
    PERFORMER "Eric Schaefer"
    REM COMPOSER ""
    INDEX 01 00:00:00
FILE "05 - Tengu.wav" WAVE
  TRACK 05 AUDIO
    TITLE "Tengu"
    PERFORMER "Eric Schaefer"
    REM COMPOSER ""
    INDEX 01 00:00:00
FILE "06 - Hiei-zan Nightfall.wav" WAVE
  TRACK 06 AUDIO
    TITLE "Hiei-zan Nightfall"
    PERFORMER "Eric Schaefer"
    REM COMPOSER ""
    INDEX 01 00:00:00
FILE "07 - Tohoku.wav" WAVE
  TRACK 07 AUDIO
    TITLE "Tohoku"
    PERFORMER "Eric Schaefer"
    REM COMPOSER ""
    INDEX 01 00:00:00
FILE "08 - Rokudan.wav" WAVE
  TRACK 08 AUDIO
    TITLE "Rokudan"
    PERFORMER "Eric Schaefer"
    REM COMPOSER ""
    INDEX 01 00:00:00
FILE "09 - Ticket To Osaka.wav" WAVE
  TRACK 09 AUDIO
    TITLE "Ticket To Osaka"
    PERFORMER "Eric Schaefer"
    REM COMPOSER ""
    INDEX 01 00:00:00
FILE "10 - Shadow In The Woods.wav" WAVE
  TRACK 10 AUDIO
    TITLE "Shadow In The Woods"
    PERFORMER "Eric Schaefer"
    REM COMPOSER ""
    INDEX 01 00:00:00
FILE "11 - Kansai Two-Face.wav" WAVE
  TRACK 11 AUDIO
    TITLE "Kansai Two-Face"
    PERFORMER "Eric Schaefer"
    REM COMPOSER ""
    INDEX 01 00:00:00
  TRACK 12 AUDIO
    TITLE "Pavane de la Belle au bois dormant"
    PERFORMER "Eric Schaefer"
    REM COMPOSER ""
    INDEX 00 04:23:49
FILE "12 - Pavane de la Belle au bois dormant.wav" WAVE
    INDEX 01 00:00:00
Приватный:
Нет (DHT включён)
Размер:
283.25 Мб (297,005,370 байт) » файлов: 21
Участники:
0 раздают, 1 качают (1 участников всего)
Внешние участники:
10 раздают, 3 качают (13 участников всего) [ Обновить ]
Скорость:
1.09 Мб/c 0/c
23:52
59
RSS
Нет комментариев. Ваш будет первым!