Поиск

2017 Chick Corea - The Musician (3CD) {Concord CJA00019}

2017 Chick Corea - The Musician (3CD) {Concord CJA00019}
Страна-производитель диска (релиза):
USA
Дата издания диска:
21 апреля 2017
Издатель (лейбл):
Номер по каталогу:
CJA00019
Носитель:
CD
Битрейт аудио:
lossless
Аудиокодек:
FLAC (*.flac)
Тип рипа:
tracks+.cue
Время звучания:
03:36:37
Наличие сканов:
  • да
Релизёр (источник):
jlgt

Треклист:

CD 01 Продолжительность: 77:11
Треклист:
01. Captain Marvel (8:15)
02. Light as a Feather (14:17)
03. I Hear a Rhapsody (9:26)
04. Spirit Rides (13:01)
05. Special Beings (16:43)
06. I've Got the World on a String (5:55)
07. Spain (9:35)

CD 02 Продолжительность: 71:36
Треклист:
01. Overture (7:58)
02. Your Eyes Speak to Me (4:33)
03. If I Were a Bell (22:09)
04. Nefertiti (10:55)
05. Zyryab (16:38)
06. Mi Nina Lola (9:22)

CD 03 Продолжительность: 68:01
Треклист:
01. CC's Birthday Blues (9:27)
02. Caravan (8:30)
03. Hot House (5:01)
04. Dolphin Dance (9:10)
05. Cantaloupe Island (6:38)
06. Ritual (13:40)
07. Silver Temple (15:36)

Состав:

  • Jeff Ballard    Drums
  • Gary Bartz    Saxophone
  • Carles Benavent    Bass
  • Brian Blade    Drums
  • Concha Buika    Vocals
  • Gary Burton    Primary Artist
  • Stanley Clarke    Bass, Composer
  • Chick Corea    Composer, Executive Producer, Producer
  • Jack DeJohnette    Drums
  • Frank Gambale    Guitar
  • Kenny Garrett    Saxophone
  • Ilmar Gavilan    Violin
  • Eddie Gomez    Bass
  • Juan-Miguel Hernandez    Viola
  • Bernie Kirsh    Engineer
  • Eric Marienthal    Saxophone
  • Wynton Marsalis    Featured Artist
  • John McLaughlin    Composer, Guitar
  • Niño Josele    Guitar
  • Jorge Pardo    Flute, Saxophone
  • John Patitucci    Bass
  • Gary Peacock    Bass
  • Wallace Roney    Trumpet
  • Dave Weckl    Drums
  • Lenny White    Drums
  • Melissa White    Violin
  • Paul Wiancko    Cello
  • Armando Antonio Zacone    Liner Notes
CD 01 logs
Лог создания рипа


Exact Audio Copy V1.0 beta 3 from 29. August 2011
EAC extraction logfile from 9. June 2017, 21:09
Chick Corea / The Musician (Disc 1)
Used drive  : ASUS    DRW-24F1ST   a   Adapter: 0  ID: 0
Read mode               : Secure
Utilize accurate stream : Yes
Defeat audio cache      : Yes
Make use of C2 pointers : No
Read offset correction                      : 6
Overread into Lead-In and Lead-Out          : No
Fill up missing offset samples with silence : Yes
Delete leading and trailing silent blocks   : No
Null samples used in CRC calculations       : Yes
Used interface                              : Native Win32 interface for Win NT & 2000
Gap handling                                : Appended to previous track
Used output format              : User Defined Encoder
Selected bitrate                : 128 kBit/s
Quality                         : High
Add ID3 tag                     : No
Command line compressor         : C:\Program Files (x86)\Exact Audio Copy\FLAC\FLAC.EXE
Additional command line options : -8 -V -T "ARTIST=%artist%" -T "TITLE=%title%" -T "ALBUM=%albumtitle%" -T "DATE=%year%" -T "TRACKNUMBER=%tracknr%" -T "TOTALTRACKS=%numtracks%" -T "GENRE=%genre%" -T "ALBUMARTIST=%albumartist%" -T "ALBUM ARTIST=%albumartist%" -T "COMMENT=EAC Secure Mode, Test & Copy, AccurateRip, FLAC -8" %source%
TOC of the extracted CD
     Track |   Start  |  Length  | Start sector | End sector
    ---------------------------------------------------------
        1  |  0:00.00 |  8:15.09 |         0    |    37133
        2  |  8:15.09 | 14:16.42 |     37134    |   101375
        3  | 22:31.51 |  9:25.51 |    101376    |   143801
        4  | 31:57.27 | 13:00.56 |    143802    |   202357
        5  | 44:58.08 | 16:43.22 |    202358    |   277604
        6  | 61:41.30 |  5:54.51 |    277605    |   304205
        7  | 67:36.06 |  9:34.42 |    304206    |   347297
Track  1
     Filename K:\EAC\01 - Captain Marvel.wav
     Pre-gap length  0:00:02.00
     Peak level 100.0 %
     Extraction speed 5.5 X
     Track quality 100.0 %
     Test CRC 2EC67542
     Copy CRC 2EC67542
     Track not present in AccurateRip database
     Copy OK
Track  2
     Filename K:\EAC\02 - Light as a Feather.wav
     Peak level 100.0 %
     Extraction speed 6.6 X
     Track quality 99.9 %
     Test CRC 4D4C4EC2
     Copy CRC 4D4C4EC2
     Track not present in AccurateRip database
     Copy OK
Track  3
     Filename K:\EAC\03 - I Hear a Rhapsody.wav
     Peak level 100.0 %
     Extraction speed 7.2 X
     Track quality 99.9 %
     Test CRC 2486CDA1
     Copy CRC 2486CDA1
     Track not present in AccurateRip database
     Copy OK
Track  4
     Filename K:\EAC\04 - Spirit Rides.wav
     Peak level 89.3 %
     Extraction speed 8.7 X
     Track quality 100.0 %
     Test CRC 4ECAAA6D
     Copy CRC 4ECAAA6D
     Track not present in AccurateRip database
     Copy OK
Track  5
     Filename K:\EAC\05 - Special Beings.wav
     Peak level 89.3 %
     Extraction speed 9.3 X
     Track quality 99.9 %
     Test CRC 5B9036E1
     Copy CRC 5B9036E1
     Track not present in AccurateRip database
     Copy OK
Track  6
     Filename K:\EAC\06 - I've Got the World on a String.wav
     Peak level 99.3 %
     Extraction speed 9.6 X
     Track quality 100.0 %
     Test CRC 8413ECA6
     Copy CRC 8413ECA6
     Track not present in AccurateRip database
     Copy OK
Track  7
     Filename K:\EAC\07 - Spain.wav
     Peak level 92.5 %
     Extraction speed 10.3 X
     Track quality 100.0 %
     Test CRC E314C88F
     Copy CRC E314C88F
     Track not present in AccurateRip database
     Copy OK
None of the tracks are present in the AccurateRip database
No errors occurred
End of status report
==== Log checksum 32DCB29DC2B0DDB7F077EE91584B5DE876687A92FEBD56A0D172605FE090A6AB ====
Содержание индексной карты (.CUE)


REM GENRE Jazz
REM DATE 2017
REM DISCID 5D121607
REM COMMENT "ExactAudioCopy v1.0b3"
PERFORMER "Chick Corea"
TITLE "The Musician (Disc 1)"
FILE "01 - Captain Marvel.wav" WAVE
  TRACK 01 AUDIO
    TITLE "Captain Marvel"
    PERFORMER "Chick Corea"
    INDEX 01 00:00:00
FILE "02 - Light as a Feather.wav" WAVE
  TRACK 02 AUDIO
    TITLE "Light as a Feather"
    PERFORMER "Chick Corea"
    INDEX 01 00:00:00
FILE "03 - I Hear a Rhapsody.wav" WAVE
  TRACK 03 AUDIO
    TITLE "I Hear a Rhapsody"
    PERFORMER "Chick Corea"
    INDEX 01 00:00:00
FILE "04 - Spirit Rides.wav" WAVE
  TRACK 04 AUDIO
    TITLE "Spirit Rides"
    PERFORMER "Chick Corea"
    INDEX 01 00:00:00
FILE "05 - Special Beings.wav" WAVE
  TRACK 05 AUDIO
    TITLE "Special Beings"
    PERFORMER "Chick Corea"
    INDEX 01 00:00:00
FILE "06 - I've Got the World on a String.wav" WAVE
  TRACK 06 AUDIO
    TITLE "I've Got the World on a String"
    PERFORMER "Chick Corea"
    INDEX 01 00:00:00
FILE "07 - Spain.wav" WAVE
  TRACK 07 AUDIO
    TITLE "Spain"
    PERFORMER "Chick Corea"
    INDEX 01 00:00:00
CD 02 logs
Лог создания рипа


Exact Audio Copy V1.0 beta 3 from 29. August 2011
EAC extraction logfile from 9. June 2017, 21:31
Chick Corea / The Musician (Disc 2)
Used drive  : ASUS    DRW-24F1ST   a   Adapter: 0  ID: 0
Read mode               : Secure
Utilize accurate stream : Yes
Defeat audio cache      : Yes
Make use of C2 pointers : No
Read offset correction                      : 6
Overread into Lead-In and Lead-Out          : No
Fill up missing offset samples with silence : Yes
Delete leading and trailing silent blocks   : No
Null samples used in CRC calculations       : Yes
Used interface                              : Native Win32 interface for Win NT & 2000
Gap handling                                : Appended to previous track
Used output format              : User Defined Encoder
Selected bitrate                : 128 kBit/s
Quality                         : High
Add ID3 tag                     : No
Command line compressor         : C:\Program Files (x86)\Exact Audio Copy\FLAC\FLAC.EXE
Additional command line options : -8 -V -T "ARTIST=%artist%" -T "TITLE=%title%" -T "ALBUM=%albumtitle%" -T "DATE=%year%" -T "TRACKNUMBER=%tracknr%" -T "TOTALTRACKS=%numtracks%" -T "GENRE=%genre%" -T "ALBUMARTIST=%albumartist%" -T "ALBUM ARTIST=%albumartist%" -T "COMMENT=EAC Secure Mode, Test & Copy, AccurateRip, FLAC -8" %source%
TOC of the extracted CD
     Track |   Start  |  Length  | Start sector | End sector
    ---------------------------------------------------------
        1  |  0:00.00 |  7:57.64 |         0    |    35838
        2  |  7:57.64 |  4:32.49 |     35839    |    56287
        3  | 12:30.38 | 22:09.37 |     56288    |   155999
        4  | 34:40.00 | 10:54.65 |    156000    |   205114
        5  | 45:34.65 | 16:38.30 |    205115    |   279994
        6  | 62:13.20 |  9:22.21 |    279995    |   322165
Track  1
     Filename K:\EAC\01 - Overture.wav
     Pre-gap length  0:00:02.00
     Peak level 90.9 %
     Extraction speed 5.5 X
     Track quality 100.0 %
     Test CRC F43D9F68
     Copy CRC F43D9F68
     Track not present in AccurateRip database
     Copy OK
Track  2
     Filename K:\EAC\02 - Your Eyes Speak to Me.wav
     Peak level 90.6 %
     Extraction speed 5.8 X
     Track quality 100.0 %
     Test CRC 0B3136D4
     Copy CRC 0B3136D4
     Track not present in AccurateRip database
     Copy OK
Track  3
     Filename K:\EAC\03 - If I Were a Bell.wav
     Peak level 98.5 %
     Extraction speed 7.7 X
     Track quality 100.0 %
     Test CRC 614AFF50
     Copy CRC 614AFF50
     Track not present in AccurateRip database
     Copy OK
Track  4
     Filename K:\EAC\04 - Nefertiti.wav
     Peak level 100.0 %
     Extraction speed 8.7 X
     Track quality 100.0 %
     Test CRC BA166189
     Copy CRC BA166189
     Track not present in AccurateRip database
     Copy OK
Track  5
     Filename K:\EAC\05 - Zyryab.wav
     Peak level 94.6 %
     Extraction speed 9.7 X
     Track quality 100.0 %
     Test CRC 1C0D6A07
     Copy CRC 1C0D6A07
     Track not present in AccurateRip database
     Copy OK
Track  6
     Filename K:\EAC\06 - Mi Nina Lola.wav
     Peak level 98.3 %
     Extraction speed 10.2 X
     Track quality 100.0 %
     Test CRC 46FB8F0D
     Copy CRC 46FB8F0D
     Track not present in AccurateRip database
     Copy OK
None of the tracks are present in the AccurateRip database
No errors occurred
End of status report
==== Log checksum 860932BA8E951AE2A112A647299FABEABC3959F049FAC1548F964EB338A3CC17 ====
Содержание индексной карты (.CUE)


REM GENRE Jazz
REM DATE 2017
REM DISCID 5410C706
REM COMMENT "ExactAudioCopy v1.0b3"
PERFORMER "Chick Corea"
TITLE "The Musician (Disc 2)"
FILE "01 - Overture.wav" WAVE
  TRACK 01 AUDIO
    TITLE "Overture"
    PERFORMER "Chick Corea"
    INDEX 01 00:00:00
FILE "02 - Your Eyes Speak to Me.wav" WAVE
  TRACK 02 AUDIO
    TITLE "Your Eyes Speak to Me"
    PERFORMER "Chick Corea"
    INDEX 01 00:00:00
FILE "03 - If I Were a Bell.wav" WAVE
  TRACK 03 AUDIO
    TITLE "If I Were a Bell"
    PERFORMER "Chick Corea"
    INDEX 01 00:00:00
FILE "04 - Nefertiti.wav" WAVE
  TRACK 04 AUDIO
    TITLE "Nefertiti"
    PERFORMER "Chick Corea"
    INDEX 01 00:00:00
FILE "05 - Zyryab.wav" WAVE
  TRACK 05 AUDIO
    TITLE "Zyryab"
    PERFORMER "Chick Corea"
    INDEX 01 00:00:00
FILE "06 - Mi Nina Lola.wav" WAVE
  TRACK 06 AUDIO
    TITLE "Mi Nina Lola"
    PERFORMER "Chick Corea"
    INDEX 01 00:00:00
CD 03 logs
Лог создания рипа


Exact Audio Copy V1.0 beta 3 from 29. August 2011
EAC extraction logfile from 9. June 2017, 21:52
Chick Corea / The Musician (Disc 3)
Used drive  : ASUS    DRW-24F1ST   a   Adapter: 0  ID: 0
Read mode               : Secure
Utilize accurate stream : Yes
Defeat audio cache      : Yes
Make use of C2 pointers : No
Read offset correction                      : 6
Overread into Lead-In and Lead-Out          : No
Fill up missing offset samples with silence : Yes
Delete leading and trailing silent blocks   : No
Null samples used in CRC calculations       : Yes
Used interface                              : Native Win32 interface for Win NT & 2000
Gap handling                                : Appended to previous track
Used output format              : User Defined Encoder
Selected bitrate                : 128 kBit/s
Quality                         : High
Add ID3 tag                     : No
Command line compressor         : C:\Program Files (x86)\Exact Audio Copy\FLAC\FLAC.EXE
Additional command line options : -8 -V -T "ARTIST=%artist%" -T "TITLE=%title%" -T "ALBUM=%albumtitle%" -T "DATE=%year%" -T "TRACKNUMBER=%tracknr%" -T "TOTALTRACKS=%numtracks%" -T "GENRE=%genre%" -T "ALBUMARTIST=%albumartist%" -T "ALBUM ARTIST=%albumartist%" -T "COMMENT=EAC Secure Mode, Test & Copy, AccurateRip, FLAC -8" %source%
TOC of the extracted CD
     Track |   Start  |  Length  | Start sector | End sector
    ---------------------------------------------------------
        1  |  0:00.00 |  9:26.60 |         0    |    42509
        2  |  9:26.60 |  8:29.55 |     42510    |    80739
        3  | 17:56.40 |  5:00.43 |     80740    |   103282
        4  | 22:57.08 |  9:10.02 |    103283    |   144534
        5  | 32:07.10 |  6:38.20 |    144535    |   174404
        6  | 38:45.30 | 13:39.65 |    174405    |   235894
        7  | 52:25.20 | 15:35.47 |    235895    |   306066
Track  1
     Filename K:\EAC\01 - CC's Birthday Blues.wav
     Pre-gap length  0:00:02.00
     Peak level 85.0 %
     Extraction speed 5.7 X
     Track quality 100.0 %
     Test CRC 75D24E08
     Copy CRC 75D24E08
     Track not present in AccurateRip database
     Copy OK
Track  2
     Filename K:\EAC\02 - Caravan.wav
     Peak level 85.4 %
     Extraction speed 6.5 X
     Track quality 100.0 %
     Test CRC F22017A4
     Copy CRC F22017A4
     Track not present in AccurateRip database
     Copy OK
Track  3
     Filename K:\EAC\03 - Hot House.wav
     Peak level 83.3 %
     Extraction speed 6.8 X
     Track quality 100.0 %
     Test CRC 2A785A1B
     Copy CRC 2A785A1B
     Track not present in AccurateRip database
     Copy OK
Track  4
     Filename K:\EAC\04 - Dolphin Dance.wav
     Peak level 78.3 %
     Extraction speed 7.8 X
     Track quality 100.0 %
     Test CRC 8F92FBD8
     Copy CRC 8F92FBD8
     Track not present in AccurateRip database
     Copy OK
Track  5
     Filename K:\EAC\05 - Cantaloupe Island.wav
     Peak level 86.6 %
     Extraction speed 8.1 X
     Track quality 100.0 %
     Test CRC 92D9CD5A
     Copy CRC 92D9CD5A
     Track not present in AccurateRip database
     Copy OK
Track  6
     Filename K:\EAC\06 - Ritual.wav
     Peak level 95.7 %
     Extraction speed 9.2 X
     Track quality 100.0 %
     Test CRC B4AB3D2D
     Copy CRC B4AB3D2D
     Track not present in AccurateRip database
     Copy OK
Track  7
     Filename K:\EAC\07 - Silver Temple.wav
     Peak level 95.8 %
     Extraction speed 10.2 X
     Track quality 100.0 %
     Test CRC 0294CE77
     Copy CRC 0294CE77
     Track not present in AccurateRip database
     Copy OK
None of the tracks are present in the AccurateRip database
No errors occurred
End of status report
==== Log checksum 4DB55899783BF6E92935F5348D00C641E542EBDFA77FE330271A3A24305E6C99 ====
Содержание индексной карты (.CUE)


REM GENRE Jazz
REM DATE 2017
REM DISCID 6B0FF007
REM COMMENT "ExactAudioCopy v1.0b3"
PERFORMER "Chick Corea"
TITLE "The Musician (Disc 3)"
FILE "01 - CC's Birthday Blues.wav" WAVE
  TRACK 01 AUDIO
    TITLE "CC's Birthday Blues"
    PERFORMER "Chick Corea"
    INDEX 01 00:00:00
FILE "02 - Caravan.wav" WAVE
  TRACK 02 AUDIO
    TITLE "Caravan"
    PERFORMER "Chick Corea"
    INDEX 01 00:00:00
FILE "03 - Hot House.wav" WAVE
  TRACK 03 AUDIO
    TITLE "Hot House"
    PERFORMER "Chick Corea"
    INDEX 01 00:00:00
FILE "04 - Dolphin Dance.wav" WAVE
  TRACK 04 AUDIO
    TITLE "Dolphin Dance"
    PERFORMER "Chick Corea"
    INDEX 01 00:00:00
FILE "05 - Cantaloupe Island.wav" WAVE
  TRACK 05 AUDIO
    TITLE "Cantaloupe Island"
    PERFORMER "Chick Corea"
    INDEX 01 00:00:00
FILE "06 - Ritual.wav" WAVE
  TRACK 06 AUDIO
    TITLE "Ritual"
    PERFORMER "Chick Corea"
    INDEX 01 00:00:00
FILE "07 - Silver Temple.wav" WAVE
  TRACK 07 AUDIO
    TITLE "Silver Temple"
    PERFORMER "Chick Corea"
    INDEX 01 00:00:00
Приватный:
Нет (DHT включён)
Размер:
1.49 Гб (1,603,687,117 байт) » файлов: 55
Участники:
31 раздают, 1 качают (32 участников всего)
Внешние участники:
10 раздают, 3 качают (13 участников всего) [ Обновить ]
Скорость:
1.87 Мб/c 32.81 Кб/c
23:08
72
RSS
Нет комментариев. Ваш будет первым!