Поиск

2017 Antonio Farao - Eklektik {Warner Music 5054197610424}

2017 Antonio Farao - Eklektik {Warner Music 5054197610424}
Страна-производитель диска (релиза):
Italy
Дата записи диска:
11-12 июня 2016 
Дата издания диска:
3 марта 2017
Издатель (лейбл):
Номер по каталогу:
5054197610424
Носитель:
CD
Битрейт аудио:
lossless
Аудиокодек:
FLAC (*.flac)
Тип рипа:
tracks+.cue
Время звучания:
48:53
Наличие сканов:
  • да

Треклист:
01. EKLEKTIK “INTRO” 2:07 featuring Robert Davi
02. LINE 3:16 featuring Krayzie Bone
03. I SEND TO YOU 3:13
04. MOTION 5:34 featuring Mike Clark
05. EUROPE 3:44 featuring Claudia Campagnol, Marcus Miller and Manu Katché
06. NEWS FROM... 3:44 featuring Snoop Dogg and Walter Ricci
07. QUIET 4:16
08.  PART OF YOU 3:52 featuring Claudia Campagnol and Manu Katché
09. FRAMMENTI 5:03 featuring Manu Katché
10. NUEVA QUARTO 3:12 featuring Manu Katché
11. THROUGH THE DAY 4:27 featuring Walter Ricci
12. ROUGH 5:59 featuring Didier Lockwood, Bireli Lagrene, Lenny White and Luigi Di Nunzio
 
Recorded at Studio Meudon in Paris 11/12 June 2016 
Mixed and Mastered at Digitubestudio in Grazie di Curtatone (MN) 11/12 July 2016
Состав:
  • Antonio Farao — acoustic piano/keyboards/programming/arranger Marcus Miller — electric bass on #5
  • Dario Rosciglione — electric bass/programming on #8/#9/#10/#12 -choirs on #7
  • Enrico Solazzo — co-arranger/programming and sounds supervision on #5,#6,#8,#9,#11,#12
  • Manu Katche — drums on #5/#8/#9/#10
  • Mike Clark — drums on #4
  • Walter Ricci — voice on #6 & #11
  • Claudia Campagnol — voice on #5 & #8
  • Fabiana Rosciglione — choirs on #9
  • Didier Lockwood — violin on #12
  • Snoop Dogg — rap on #6
  • Krayzie Bone — rap on #2
  • Bireli Lagrene — guitar on #12
  • Luigi Di Nunzio — alto sax on #12
  • Robert Davi — voice on #1

  • Produced By Walter Lagorio & Antonio Farad (Co-Producer)
  • Executive Producer Walter Lagorio
  • Artistic Producer Antonio Farad

  • Photo and cover: Marco Glaviano
  • Photo on page 6: Roberto Cifarelli
  • Graphic Design: Panaro Design
Лог создания рипа
Exact Audio Copy V1.3 from 2. September 2016
EAC extraction logfile from 8. July 2017, 19:44
Antonio Farao / Eklektik
Used drive : ATAPI iHBS112 2 Adapter: 1 ID: 1
Read mode : Secure
Utilize accurate stream : Yes
Defeat audio cache : Yes
Make use of C2 pointers : No
Read offset correction : 6
Overread into Lead-In and Lead-Out : No
Fill up missing offset samples with silence : Yes
Delete leading and trailing silent blocks : No
Null samples used in CRC calculations : Yes
Used interface : Native Win32 interface for Win NT & 2000
Gap handling : Appended to previous track
Used output format : User Defined Encoder
Selected bitrate : 128 kBit/s
Quality : High
Add ID3 tag : No
Command line compressor : C:\Program Files (x86)\Exact Audio Copy\Flac\flac.exe
Additional command line options : -8 -V -T "ARTIST=%artist%" -T "TITLE=%title%" -T "ALBUM=%albumtitle%" -T "DATE=%year%" -T "TRACKNUMBER=%tracknr%" -T "GENRE=%genre%" -T "PERFORMER=%albuminterpret%" -T "COMPOSER=%composer%" -T "ALBUMARTIST=%albumartist%" -T "DISCNUMBER=%cdnumber%" -T "TOTALDISCS=%totalcds%" -T "TOTALTRACKS=%numtracks%" -T "COMMENT=EAC Secure Mode, Test & Copy, AccurateRip, FLAC -8" %source% -o %dest%
TOC of the extracted CD Track | Start | Length | Start sector | End sector --------------------------------------------------------- 1 | 0:00.00 | 2:07.59 | 0 | 9583 2 | 2:07.59 | 3:18.40 | 9584 | 24473 3 | 5:26.24 | 3:15.00 | 24474 | 39098 4 | 8:41.24 | 5:36.57 | 39099 | 64355 5 | 14:18.06 | 3:46.35 | 64356 | 81340 6 | 18:04.41 | 3:46.47 | 81341 | 98337 7 | 21:51.13 | 4:18.67 | 98338 | 117754 8 | 26:10.05 | 3:54.20 | 117755 | 135324 9 | 30:04.25 | 5:05.23 | 135325 | 158222 10 | 35:09.48 | 3:14.23 | 158223 | 172795 11 | 38:23.71 | 4:29.48 | 172796 | 193018 12 | 42:53.44 | 5:59.66 | 193019 | 220009
Track 1 Filename J:\DL\Antonio Farao - Eklektik (2017) [FLAC]\01 - Eklektik ''Intro''.wav Pre-gap length 0:00:02.00 Peak level 100.0 % Extraction speed 3.3 X Track quality 99.9 % Test CRC 6A54D623 Copy CRC 6A54D623 Track not present in AccurateRip database Copy OK
Track 2 Filename J:\DL\Antonio Farao - Eklektik (2017) [FLAC]\02 - Line.wav Peak level 100.0 % Extraction speed 4.3 X Track quality 99.9 % Test CRC B071ECD8 Copy CRC B071ECD8 Track not present in AccurateRip database Copy OK
Track 3 Filename J:\DL\Antonio Farao - Eklektik (2017) [FLAC]\03 - I Send To You.wav Pre-gap length 0:00:02.00 Peak level 100.0 % Extraction speed 5.6 X Track quality 100.0 % Test CRC 42315738 Copy CRC 42315738 Track not present in AccurateRip database Copy OK
Track 4 Filename J:\DL\Antonio Farao - Eklektik (2017) [FLAC]\04 - Motion.wav Pre-gap length 0:00:02.00 Peak level 100.0 % Extraction speed 6.6 X Track quality 100.0 % Test CRC 97264451 Copy CRC 97264451 Track not present in AccurateRip database Copy OK
Track 5 Filename J:\DL\Antonio Farao - Eklektik (2017) [FLAC]\05 - Europe.wav Pre-gap length 0:00:02.00 Peak level 100.0 % Extraction speed 6.8 X Track quality 100.0 % Test CRC 2DC70A2B Copy CRC 2DC70A2B Track not present in AccurateRip database Copy OK
Track 6 Filename J:\DL\Antonio Farao - Eklektik (2017) [FLAC]\06 - News From.wav Pre-gap length 0:00:02.00 Peak level 100.0 % Extraction speed 7.2 X Track quality 100.0 % Test CRC 4F03E64C Copy CRC 4F03E64C Track not present in AccurateRip database Copy OK
Track 7 Filename J:\DL\Antonio Farao - Eklektik (2017) [FLAC]\07 - Quiet.wav Pre-gap length 0:00:02.00 Peak level 100.0 % Extraction speed 7.7 X Track quality 100.0 % Test CRC 54EF9D02 Copy CRC 54EF9D02 Track not present in AccurateRip database Copy OK
Track 8 Filename J:\DL\Antonio Farao - Eklektik (2017) [FLAC]\08 - Part Of You.wav Pre-gap length 0:00:02.00 Peak level 100.0 % Extraction speed 7.9 X Track quality 100.0 % Test CRC 1F075E60 Copy CRC 1F075E60 Track not present in AccurateRip database Copy OK
Track 9 Filename J:\DL\Antonio Farao - Eklektik (2017) [FLAC]\09 - Frammenti.wav Pre-gap length 0:00:02.00 Peak level 100.0 % Extraction speed 8.6 X Track quality 100.0 % Test CRC CF42ADAD Copy CRC CF42ADAD Track not present in AccurateRip database Copy OK
Track 10 Filename J:\DL\Antonio Farao - Eklektik (2017) [FLAC]\10 - Nueva Quarto.wav Pre-gap length 0:01:48.42 Peak level 100.0 % Extraction speed 8.4 X Track quality 100.0 % Test CRC E181240D Copy CRC E181240D Track not present in AccurateRip database Copy OK
Track 11 Filename J:\DL\Antonio Farao - Eklektik (2017) [FLAC]\11 - Through The Day.wav Pre-gap length 0:05:02.65 Peak level 100.0 % Extraction speed 9.1 X Track quality 100.0 % Test CRC 05C3DC27 Copy CRC 05C3DC27 Track not present in AccurateRip database Copy OK
Track 12 Filename J:\DL\Antonio Farao - Eklektik (2017) [FLAC]\12 - Rough.wav Pre-gap length 0:09:32.38 Peak level 100.0 % Extraction speed 8.5 X Track quality 99.9 % Test CRC 642C5B64 Copy CRC 642C5B64 Track not present in AccurateRip database Copy OK
None of the tracks are present in the AccurateRip database
No errors occurred
End of status report
---- CUETools DB Plugin V2.1.6
[CTDB TOCID: oAS.VaDT5UmFjhfQVJTzPProTy0-] found
Submit result: oAS.VaDT5UmFjhfQVJTzPProTy0- has been confirmed
Track | CTDB Status 1 | (4/4) Accurately ripped 2 | (4/4) Accurately ripped 3 | (4/4) Accurately ripped 4 | (4/4) Accurately ripped 5 | (4/4) Accurately ripped 6 | (4/4) Accurately ripped 7 | (4/4) Accurately ripped 8 | (4/4) Accurately ripped 9 | (4/4) Accurately ripped
10 | (4/4) Accurately ripped
11 | (4/4) Accurately ripped
12 | (4/4) Accurately ripped
==== Log checksum 3F0A76E102E8F3A9B41E934BF8C94727B8A64D7181AE768E30C9A492D3FB27C0 ====
Содержание индексной карты (.CUE)
REM GENRE Jazz
REM DATE 2017
REM DISCID 8A0B750C
REM COMMENT "ExactAudioCopy v1.3"
PERFORMER "Antonio Farao"
TITLE "Eklektik"
REM COMPOSER ""
FILE "01 - Eklektik ''Intro''.wav" WAVE TRACK 01 AUDIO TITLE "Eklektik 'Intro'" PERFORMER "Antonio Farao" REM COMPOSER "" INDEX 01 00:00:00
FILE "02 - Line.wav" WAVE TRACK 02 AUDIO TITLE "Line" PERFORMER "Antonio Farao" REM COMPOSER "" INDEX 01 00:00:00 TRACK 03 AUDIO TITLE "I Send To You" PERFORMER "Antonio Farao" REM COMPOSER "" INDEX 00 03:16:40
FILE "03 - I Send To You.wav" WAVE INDEX 01 00:00:00 TRACK 04 AUDIO TITLE "Motion" PERFORMER "Antonio Farao" REM COMPOSER "" INDEX 00 03:13:00
FILE "04 - Motion.wav" WAVE INDEX 01 00:00:00 TRACK 05 AUDIO TITLE "Europe" PERFORMER "Antonio Farao" REM COMPOSER "" INDEX 00 05:34:57
FILE "05 - Europe.wav" WAVE INDEX 01 00:00:00 TRACK 06 AUDIO TITLE "News From" PERFORMER "Antonio Farao" REM COMPOSER "" INDEX 00 03:44:35
FILE "06 - News From.wav" WAVE INDEX 01 00:00:00 TRACK 07 AUDIO TITLE "Quiet" PERFORMER "Antonio Farao" REM COMPOSER "" INDEX 00 03:44:47
FILE "07 - Quiet.wav" WAVE INDEX 01 00:00:00 TRACK 08 AUDIO TITLE "Part Of You" PERFORMER "Antonio Farao" REM COMPOSER "" INDEX 00 04:16:67
FILE "08 - Part Of You.wav" WAVE INDEX 01 00:00:00 TRACK 09 AUDIO TITLE "Frammenti" PERFORMER "Antonio Farao" REM COMPOSER "" INDEX 00 03:52:20
FILE "09 - Frammenti.wav" WAVE INDEX 01 00:00:00 TRACK 10 AUDIO TITLE "Nueva Quarto" PERFORMER "Antonio Farao" REM COMPOSER "" INDEX 00 03:16:56
FILE "10 - Nueva Quarto.wav" WAVE INDEX 01 00:00:00 TRACK 11 AUDIO TITLE "Through The Day" PERFORMER "Antonio Farao" REM COMPOSER "" INDEX 00 09:12:33
FILE "11 - Through The Day.wav" WAVE INDEX 01 00:00:00 TRACK 12 AUDIO TITLE "Rough" PERFORMER "Antonio Farao" REM COMPOSER "" INDEX 00 05:58:10
FILE "12 - Rough.wav" WAVE INDEX 01 00:00:00
Приватный:
Нет (DHT включён)
Размер:
399.60 Мб (419,007,059 байт) » файлов: 25
Участники:
1 раздают, 0 качают (1 участников всего)
Внешние участники:
Нет внешних трекеров [ Обновить ]
11:12
176
RSS
Нет комментариев. Ваш будет первым!