Поиск

2017 Al Di Meola - Morocco Fantasia: World Sinfonia Live with Special Guests {inakustik INAK 9132}

2017 Al Di Meola - Morocco Fantasia: World Sinfonia Live with Special Guests {inakustik INAK 9132}
Стили:
Дата записи диска:
20 мая 2009
Дата издания диска:
10 марта 2017
Издатель (лейбл):
Номер по каталогу:
INAK 9132 CD
Носитель:
CD
Битрейт аудио:
lossless
Аудиокодек:
FLAC (*.flac)
Тип рипа:
tracks+.cue
Время звучания:
01:07:10
Наличие сканов:
  • да
Релизёр (источник):
jlgt
Треклист:

01. Misterio (9:12)
02. Siberiana (10:25)
03. Double Concerto (9:17)
04. Michelangelo's 7th Child (7:59)
05. Gumbiero (7:44)
06. Turquoise (8:21)
07. Encore (5:10)
08. Egyptian Danza (9:06)

Состав:
  • Peo Alfonsi    Guitar
  • Tarik Ben Ali    Percussion
  • Claus Altvater    Executive Producer, Photography, Producer
  • Csaba Toth Bagi    Live Sound Engineer
  • Fausto Beccalossi    Accordion
  • Said Chraibi    Oud
  • Al Di Meola    Composer, Guitar, Liner Notes, Producer
  • Péter Kaszás    Drums
  • Abdellah Meri    Violin
  • Victor Miranda    Bass
  • Gumbi Ortiz    Percussion

Записано на сцене Mawazine Musique Du Monde Festival, Rabat, Morocco

Exact Audio Copy V1.0 beta 3 from 29. August 2011EAC extraction logfile from 28. April 2017, 20:39Al Di Meola / Morocco FantasiaUsed drive: ASUS DRW-24F1ST a Adapter: 0 ID: 0Read mode: SecureUtilize accurate stream: YesDefeat audio cache: YesMake use of C2 pointers: NoRead offset correction: 6Overread into Lead-In and Lead-Out: NoFill up missing offset samples with silence: YesDelete leading and trailing silent blocks: NoNull samples used in CRC calculations: YesUsed interface: Native Win32 interface for Win NT & 2000Gap handling: Appended to previous trackUsed output format: User Defined EncoderSelected bitrate: 128 kBit/sQuality: HighAdd ID3 tag: NoCommand line compressor: C:\Program Files (x86)\Exact Audio Copy\FLAC\FLAC.EXEAdditional command line options: -8 -V -T «ARTIST=%artist%» -T «TITLE=%title%» -T «ALBUM=%albumtitle%» -T «DATE=%year%» -T «TRACKNUMBER=%tracknr%» -T «TOTALTRACKS=%numtracks%» -T «GENRE=%genre%» -T «ALBUMARTIST=%albumartist%» -T «ALBUM ARTIST=%albumartist%» -T «COMMENT=EAC Secure Mode, Test & Copy, AccurateRip, FLAC -8» %source%TOC of the extracted CD Track | Start | Length | Start sector | End sector — 1 | 0:00.00 | 9:12.23 | 0 | 41422 2 | 9:12.23 | 10:24.45 | 41423 | 88267 3 | 19:36.68 | 9:17.21 | 88268 | 130063 4 | 28:54.14 | 7:58.67 | 130064 | 165980 5 | 36:53.06 | 7:43.53 | 165981 | 200758 6 | 44:36.59 | 8:21.01 | 200759 | 238334 7 | 52:57.60 | 5:09.68 | 238335 | 261577 8 | 58:07.53 | 9:06.07 | 261578 | 302534Track 1 Filename K:\EAC\01 — Misterio.wav Pre-gap length 0:00:02.00 Peak level 91.5 % Extraction speed 5.6 X Track quality 100.0 % Test CRC 76CA352D Copy CRC 76CA352D Accurately ripped (confidence 4) [0E60F5CA] (AR v2) Copy OKTrack 2 Filename K:\EAC\02 — Siberiana.wav Peak level 90.6 % Extraction speed 6.7 X Track quality 100.0 % Test CRC 1D7B85D3 Copy CRC 1D7B85D3 Accurately ripped (confidence 4) [8AE9061F] (AR v2) Copy OKTrack 3 Filename K:\EAC\03 — Double Concerto.wav Peak level 90.6 % Extraction speed 7.4 X Track quality 100.0 % Test CRC 5C941AA2 Copy CRC 5C941AA2 Accurately ripped (confidence 4) [71E010A7] (AR v2) Copy OKTrack 4 Filename K:\EAC\04 — Michelangelo's 7th Child.wav Peak level 90.0 % Extraction speed 8.0 X Track quality 100.0 % Test CRC C0F63959 Copy CRC C0F63959 Accurately ripped (confidence 4) [CE1B9FB6] (AR v2) Copy OKTrack 5 Filename K:\EAC\05 — Gumbiero.wav Peak level 90.8 % Extraction speed 8.5 X Track quality 100.0 % Test CRC 45A825AC Copy CRC 45A825AC Accurately ripped (confidence 4) [BAD770F3] (AR v2) Copy OKTrack 6 Filename K:\EAC\06 — Turquoise.wav Peak level 90.6 % Extraction speed 9.0 X Track quality 100.0 % Test CRC D98925E0 Copy CRC D98925E0 Accurately ripped (confidence 4) [E05E17FF] (AR v2) Copy OKTrack 7 Filename K:\EAC\07 — Encore.wav Peak level 89.8 % Extraction speed 8.9 X Track quality 100.0 % Test CRC 12F3F79A Copy CRC 12F3F79A Accurately ripped (confidence 4) [3A0012A4] (AR v2) Copy OKTrack 8 Filename K:\EAC\08 — Egyptian Danza.wav Peak level 92.5 % Extraction speed 9.9 X Track quality 100.0 % Test CRC 0234883A Copy CRC 0234883A Accurately ripped (confidence 4) [148B4E12] (AR v2) Copy OKAll tracks accurately rippedNo errors occurredEnd of status report==== Log checksum 587E1B45F3B9A069C0574D0F023BA2A34DC79A93064DD1DC38A595087233B3FF ====
REM GENRE Jazz
REM DATE 2017
REM DISCID 7F0FC108
REM COMMENT "ExactAudioCopy v1.0b3"
PERFORMER "Al Di Meola"
TITLE "Morocco Fantasia"
FILE "01 - Misterio.wav" WAVE TRACK 01 AUDIO TITLE "Misterio" PERFORMER "Al Di Meola" FLAGS DCP INDEX 01 00:00:00
FILE "02 - Siberiana.wav" WAVE TRACK 02 AUDIO TITLE "Siberiana" PERFORMER "Al Di Meola" FLAGS DCP INDEX 01 00:00:00
FILE "03 - Double Concerto.wav" WAVE TRACK 03 AUDIO TITLE "Double Concerto" PERFORMER "Al Di Meola" FLAGS DCP INDEX 01 00:00:00
FILE "04 - Michelangelo's 7th Child.wav" WAVE TRACK 04 AUDIO TITLE "Michelangelo's 7th Child" PERFORMER "Al Di Meola" FLAGS DCP INDEX 01 00:00:00
FILE "05 - Gumbiero.wav" WAVE TRACK 05 AUDIO TITLE "Gumbiero" PERFORMER "Al Di Meola" FLAGS DCP INDEX 01 00:00:00
FILE "06 - Turquoise.wav" WAVE TRACK 06 AUDIO TITLE "Turquoise" PERFORMER "Al Di Meola" FLAGS DCP INDEX 01 00:00:00
FILE "07 - Encore.wav" WAVE TRACK 07 AUDIO TITLE "Encore" PERFORMER "Al Di Meola" FLAGS DCP INDEX 01 00:00:00
FILE "08 - Egyptian Danza.wav" WAVE TRACK 08 AUDIO TITLE "Egyptian Danza" PERFORMER "Al Di Meola" FLAGS DCP INDEX 01 00:00:00
11:46
83
RSS
Нет комментариев. Ваш будет первым!