Поиск

2016 Murray, Allen & Carrington Power Trio - Perfection {Motema MTA-CD-193}

2016 Murray, Allen & Carrington Power Trio - Perfection {Motema MTA-CD-193}
Страна-производитель диска (релиза):
USA
Дата записи диска:
18-19 июня 2015
Дата издания диска:
15 апреля 2016
Издатель (лейбл):
Номер по каталогу:
MTA-CD-193
Носитель:
CD
Битрейт аудио:
lossless
Аудиокодек:
FLAC (*.flac)
Тип рипа:
tracks+.cue
Время звучания:
57:46
Наличие сканов:
  • да
Релизёр (источник):
ruskaval

Треклист:

01. Mirror Of Youth (5:52)
02. Barbara Allen (6:00)
03. Geri-Rigged (6:11)
04. The David, Geri & Terri Show (8:16)
05. The Nurturer (4:43)
06. Perfection (6:06)
07. D Special (Interlude) (2:55)
08. Samsara (For Wayne) (5:44)
09. For Fr. Peter O'Brien (5:36)
10. Cycles And Seasons (6:21)

Состав:
  • Geri Allen    Arranger, Composer, Piano, Producer
  • Terri Lyne Carrington    Composer, Drums, Producer
  • Craig Harris    Trombone
  • Charnett Moffett    Bass (Acoustic)
  • Allen Murray    Primary Artist
  • David Murray    Arranger, Clarinet (Bass), Composer, Producer, Sax (Tenor)
  • Wallace Roney    Trumpet

Recorded at Avatar Studios, NYC
Mixed at Annandale Recording, NJ
Mastered at Aerial Sound

Альбом назван по и соджержит ранее не издававшуюся композицию Орнетта Колмена (Ornette Coleman) “Perfection”.

Лог создания рипа
Exact Audio Copy V1.1 from 23. June 2015
EAC extraction logfile from 4. November 2016, 8:00
Murray Allen Carrington Power Trio / Perfection
Used drive : MATSHITADVD+-RW SW830 Adapter: 1 ID: 0
Read mode : Secure
Utilize accurate stream : Yes
Defeat audio cache : Yes
Make use of C2 pointers : No
Read offset correction : 6
Overread into Lead-In and Lead-Out : No
Fill up missing offset samples with silence : Yes
Delete leading and trailing silent blocks : No
Null samples used in CRC calculations : Yes
Used interface : Native Win32 interface for Win NT & 2000
Gap handling : Appended to previous track
Used output format : User Defined Encoder
Selected bitrate : 896 kBit/s
Quality : High
Add ID3 tag : No
Command line compressor : C:\Program Files (x86)\Exact Audio Copy\Flac\flac.exe
Additional command line options : -8 -V -T "ARTIST=%artist%" -T "TITLE=%title%" -T "ALBUM=%albumtitle%" -T "DATE=%year%" -T "TRACKNUMBER=%tracknr%" -T "TOTALTRACKS=%numtracks%" -T "GENRE=%genre%" -T "ALBUMARTIST=%albumartist%" -T "ALBUM ARTIST=%albumartist%" -T "COMMENT=EAC Secure Mode, Test & Copy, AccurateRip, FLAC -8" %source%
TOC of the extracted CD Track | Start | Length | Start sector | End sector --------------------------------------------------------- 1 | 0:00.00 | 5:52.16 | 0 | 26415 2 | 5:52.16 | 5:59.44 | 26416 | 53384 3 | 11:51.60 | 6:11.16 | 53385 | 81225 4 | 18:03.01 | 8:16.00 | 81226 | 118425 5 | 26:19.01 | 4:43.16 | 118426 | 139666 6 | 31:02.17 | 6:06.36 | 139667 | 167152 7 | 37:08.53 | 2:55.25 | 167153 | 180302 8 | 40:04.03 | 5:44.31 | 180303 | 206133 9 | 45:48.34 | 5:35.63 | 206134 | 231321 10 | 51:24.22 | 6:21.32 | 231322 | 259928
Track 1 Filename G:\New Rips\Murray Allen Carrington Power Trio - Perfection (2015) [FLAC]\01 - Mirror Of Youth.wav Pre-gap length 0:00:02.00 Peak level 99.9 % Extraction speed 1.8 X Track quality 100.0 % Test CRC F9732088 Copy CRC F9732088 Accurately ripped (confidence 4) [BD5472A1] (AR v2) Copy OK
Track 2 Filename G:\New Rips\Murray Allen Carrington Power Trio - Perfection (2015) [FLAC]\02 - Barbara Allen.wav Peak level 96.2 % Extraction speed 2.2 X Track quality 100.0 % Test CRC 1AB26E90 Copy CRC 1AB26E90 Accurately ripped (confidence 4) [70B98E90] (AR v2) Copy OK
Track 3 Filename G:\New Rips\Murray Allen Carrington Power Trio - Perfection (2015) [FLAC]\03 - Geri-Rigged.wav Peak level 100.0 % Extraction speed 2.4 X Track quality 100.0 % Test CRC AF3200A6 Copy CRC AF3200A6 Accurately ripped (confidence 4) [8E27788D] (AR v2) Copy OK
Track 4 Filename G:\New Rips\Murray Allen Carrington Power Trio - Perfection (2015) [FLAC]\04 - The David Geri And Terri Show.wav Peak level 100.0 % Extraction speed 2.4 X Track quality 99.9 % Test CRC E00539B4 Copy CRC E00539B4 Accurately ripped (confidence 4) [B8942C69] (AR v2) Copy OK
Track 5 Filename G:\New Rips\Murray Allen Carrington Power Trio - Perfection (2015) [FLAC]\05 - The Nurturer.wav Peak level 98.6 % Extraction speed 2.2 X Track quality 99.9 % Test CRC 86F5C370 Copy CRC 86F5C370 Accurately ripped (confidence 4) [ACB98B63] (AR v2) Copy OK
Track 6 Filename G:\New Rips\Murray Allen Carrington Power Trio - Perfection (2015) [FLAC]\06 - Perfection.wav Peak level 98.0 % Extraction speed 2.6 X Track quality 99.9 % Test CRC EA0A33FD Copy CRC EA0A33FD Accurately ripped (confidence 4) [102FC796] (AR v2) Copy OK
Track 7 Filename G:\New Rips\Murray Allen Carrington Power Trio - Perfection (2015) [FLAC]\07 - D Special.wav Peak level 99.8 % Extraction speed 3.0 X Track quality 100.0 % Test CRC 14B95CE9 Copy CRC 14B95CE9 Accurately ripped (confidence 4) [80C6D7B9] (AR v2) Copy OK
Track 8 Filename G:\New Rips\Murray Allen Carrington Power Trio - Perfection (2015) [FLAC]\08 - Samsara.wav Peak level 96.0 % Extraction speed 3.4 X Track quality 100.0 % Test CRC 34FCB8A8 Copy CRC 34FCB8A8 Accurately ripped (confidence 4) [73E04A52] (AR v2) Copy OK
Track 9 Filename G:\New Rips\Murray Allen Carrington Power Trio - Perfection (2015) [FLAC]\09 - For Fr Peter O'Brien.wav Peak level 96.4 % Extraction speed 3.5 X Track quality 100.0 % Test CRC ADDEC2CE Copy CRC ADDEC2CE Accurately ripped (confidence 4) [F9D2CD7A] (AR v2) Copy OK
Track 10 Filename G:\New Rips\Murray Allen Carrington Power Trio - Perfection (2015) [FLAC]\10 - Cycles And Seasons.wav Peak level 100.0 % Extraction speed 3.6 X Track quality 100.0 % Test CRC 3C18E1D7 Copy CRC 3C18E1D7 Accurately ripped (confidence 4) [51382514] (AR v2) Copy OK
All tracks accurately ripped
No errors occurred
End of status report
---- CUETools DB Plugin V2.1.6
[CTDB TOCID: .xqnxjnTITpyN2ZKWtDz3wtC9Ko-] found
Submit result: .xqnxjnTITpyN2ZKWtDz3wtC9Ko- has been confirmed
Track | CTDB Status 1 | (13/13) Accurately ripped 2 | (13/13) Accurately ripped 3 | (13/13) Accurately ripped 4 | (13/13) Accurately ripped 5 | (13/13) Accurately ripped 6 | (13/13) Accurately ripped 7 | (13/13) Accurately ripped 8 | (13/13) Accurately ripped 9 | (13/13) Accurately ripped 10 | (13/13) Accurately ripped
==== Log checksum 0984EC41789EEA1D9E87FE6CB2CB1A56C8262304D4515DB72BB6331C68526303 ====
Содержание индексной карты (.CUE)
REM GENRE Jazz
REM DATE 2015
REM DISCID 7B0D890A
REM COMMENT "ExactAudioCopy v1.1"
PERFORMER "Murray Allen & Carrington Power Trio"
TITLE "Perfection"
FILE "01 - Mirror Of Youth.wav" WAVE TRACK 01 AUDIO TITLE "Mirror Of Youth" PERFORMER "Murray Allen & Carrington Power Trio" FLAGS DCP INDEX 01 00:00:00
FILE "02 - Barbara Allen.wav" WAVE TRACK 02 AUDIO TITLE "Barbara Allen" PERFORMER "Murray Allen & Carrington Power Trio" FLAGS DCP INDEX 01 00:00:00
FILE "03 - Geri-Rigged.wav" WAVE TRACK 03 AUDIO TITLE "Geri-Rigged" PERFORMER "Murray Allen & Carrington Power Trio" FLAGS DCP INDEX 01 00:00:00
FILE "04 - The David Geri And Terri Show.wav" WAVE TRACK 04 AUDIO TITLE "The David Geri And Terri Show" PERFORMER "Murray Allen & Carrington Power Trio" FLAGS DCP INDEX 01 00:00:00
FILE "05 - The Nurturer.wav" WAVE TRACK 05 AUDIO TITLE "The Nurturer" PERFORMER "Murray Allen & Carrington Power Trio" FLAGS DCP INDEX 01 00:00:00
FILE "06 - Perfection.wav" WAVE TRACK 06 AUDIO TITLE "Perfection" PERFORMER "Murray Allen & Carrington Power Trio" FLAGS DCP INDEX 01 00:00:00
FILE "07 - D Special.wav" WAVE TRACK 07 AUDIO TITLE "D Special" PERFORMER "Murray Allen & Carrington Power Trio" FLAGS DCP INDEX 01 00:00:00
FILE "08 - Samsara.wav" WAVE TRACK 08 AUDIO TITLE "Samsara" PERFORMER "Murray Allen & Carrington Power Trio" FLAGS DCP INDEX 01 00:00:00
FILE "09 - For Fr Peter O'brien.wav" WAVE TRACK 09 AUDIO TITLE "For Fr Peter O'brien" PERFORMER "Murray Allen & Carrington Power Trio" FLAGS DCP INDEX 01 00:00:00
FILE "10 - Cycles And Seasons.wav" WAVE TRACK 10 AUDIO TITLE "Cycles And Seasons" PERFORMER "Murray Allen & Carrington Power Trio" FLAGS DCP INDEX 01 00:00:00
Приватный:
Нет (DHT включён)
Размер:
379.99 Мб (398,447,357 байт) » файлов: 21
Участники:
0 раздают, 0 качают (0 участников всего)
Внешние участники:
7 раздают, 2 качают (9 участников всего) [ Обновить ]
09:52
65
RSS
Нет комментариев. Ваш будет первым!