Поиск

2016 Marc Antoine - Laguna Beach {Woodward Avenue WA 1603}

2016 Marc Antoine - Laguna Beach {Woodward Avenue WA 1603}
Страна-производитель диска (релиза):
USA
Дата издания диска:
23 сентября 2016
Издатель (лейбл):
Номер по каталогу:
WA 1603
Носитель:
CD
Битрейт аудио:
lossless
Аудиокодек:
FLAC (*.flac)
Тип рипа:
image+.cue
Время звучания:
36:29
Наличие сканов:
  • да
Релизёр (источник):
RedHotBlues

Треклист:

01. Why Not (featuring Philippe Saisse) [03:27]
02. This And That (featuring Paul Brown) [03:28]
03. Laguna Beach [03:46]
04. Deixa (featuring Tim Welvaars) [03:57]
05. Minority (featuring Rick Brown) [04:19]
06. Romantico [04:40]
07. High Five [04:36]
08. New Morning (featuring Philippe Saisse) [03:41]
09. Twice Upon A Time [04:29]

Состав:
  • Marc Antoine    Bass, Composer, Guitar (Electric), Guitar (Nylon String), Guitar (Steel), Keyboards, Percussion, Producer, Programming
  • Marco Basci    Keyboards
  • Rick Braun    Trumpet
  • Paul Brown    Additional Production, Mixing, Percussion, Soloist
  • Gorden Campbell    Drums
  • Richie Gajate Garcia    Percussion
  • Bobby Martinez    Soloist
  • Gumbi Ortiz    Percussion
  • Armand Sabal-Lecco    Bass
  • Philippe Saisse    Bandoneon, Horn Arrangements, Keyboards, Marimba
  • Greg Vail    Flute, Horn Arrangements, Saxophone
  • Roberto Vally    Bass, Bass (Upright)
  • Tim Welvaars    Harmonica
Exact Audio Copy V1.1 from 23. June 2015Отчёт EAC об извлечении, выполненном 11. октября 2016, 21:13Marc Antoine / Laguna BeachДисковод: Optiarc DVD RW AD-7700S Adapter: 1 ID: 2Режим чтения: ДостоверностьИспользование точного потока: ДаОтключение кэша аудио: ДаИспользование указателей C2: НетКоррекция смещения при чтении: 48Способность читать области Lead-in и Lead-out: НетЗаполнение пропущенных сэмплов тишиной: ДаУдаление блоков с тишиной в начале и конце: НетПри вычислениях CRC использовались нулевые сэмплы: ДаИнтерфейс: Встроенный Win32-интерфейс для Win NT/2000Выходной формат: Пользовательский кодировщикВыбранный битрейт: 768 kBit/sКачество: ВысокийДобавление ID3-тега: НетУтилита сжатия: C:\Program Files\Exact Audio Copy\FLAC\FLAC.EXEДополнительные параметры: -6 -V -T «ARTIST=%artist%» -T «TITLE=%title%» -T «ALBUM=%albumtitle%» -T «DATE=%year%» -T «TRACKNUMBER=%tracknr%» -T «GENRE=%genre%» -T «COMMENT=%comment%» -T «BAND=%albuminterpret%» -T «ALBUMARTIST=%albuminterpret%» -T «COMPOSER=%composer%» %haslyrics%--tag-from-file=LYRICS="%lyricsfile%"%haslyrics% -T «DISCNUMBER=%cdnumber%» -T «TOTALDISCS=%totalcds%» -T «TOTALTRACKS=%numtracks%» %hascover%--picture="%coverfile%"%hascover% %source% -o %dest%TOC извлечённого CD Трек | Старт | Длительность | Начальный сектор | Конечный сектор — 1 | 0:00.00 | 3:27.36 | 0 | 15560 2 | 3:27.36 | 3:28.40 | 15561 | 31200 3 | 6:56.01 | 3:46.23 | 31201 | 48173 4 | 10:42.24 | 3:57.44 | 48174 | 65992 5 | 14:39.68 | 4:19.59 | 65993 | 85476 6 | 18:59.52 | 4:40.18 | 85477 | 106494 7 | 23:39.70 | 4:36.17 | 106495 | 127211 8 | 28:16.12 | 3:41.42 | 127212 | 143828 9 | 31:57.54 | 4:29.46 | 143829 | 164049Характеристики диапазона извлечения и сообщения об ошибкахВыбранный диапазон Имя файла D:\Мои Раздачи — сентябрь 2016\Marc Antoine — Laguna Beach — 2016 36'29''\Marc Antoine — Laguna Beach.wav Пиковый уровень 100.0 % Скорость извлечения 4.4 X Качество диапазона 100.0 % CRC теста A90349CB CRC копии A90349CB Копирование… OKОшибок не произошлоКонец отчёта---- CUETools DB Plugin V2.1.6[CTDB TOCID: zxji1ZdoFNr85P9Tv07MXMdRQ5w-] foundSubmit result: zxji1ZdoFNr85P9Tv07MXMdRQ5w- has been confirmedTrack | CTDB Status 1 | (1/1) Accurately ripped 2 | (1/1) Accurately ripped 3 | (1/1) Accurately ripped 4 | (1/1) Accurately ripped 5 | (1/1) Accurately ripped 6 | (1/1) Accurately ripped 7 | (1/1) Accurately ripped 8 | (1/1) Accurately ripped 9 | (1/1) Accurately ripped==== Контрольная сумма отчёта 61687BC2532FCBFE4E5597481F0A0937635CBC2258F1E62800E18EEEE23134C8 ====
REM GENRE "Smooth Sound"
REM DATE 2016
REM DISCID 74088B09
REM COMMENT "ExactAudioCopy v1.1"
PERFORMER "Marc Antoine"
TITLE "Laguna Beach"
FILE "Marc Antoine - Laguna Beach.flac" WAVE TRACK 01 AUDIO TITLE "Why Not (featuring Philippe Saisse)" PERFORMER "Marc Antoine" INDEX 01 00:00:00 TRACK 02 AUDIO TITLE "This And That (featuring Paul Brown)" PERFORMER "Marc Antoine" INDEX 00 03:25:36 INDEX 01 03:27:36 TRACK 03 AUDIO TITLE "Laguna Beach" PERFORMER "Marc Antoine" INDEX 00 06:55:01 INDEX 01 06:56:01 TRACK 04 AUDIO TITLE "Deixa (featuring Tim Welvaars)" PERFORMER "Marc Antoine" INDEX 01 10:42:24 TRACK 05 AUDIO TITLE "Minority (featuring Rick Brown)" PERFORMER "Marc Antoine" INDEX 01 14:39:68 TRACK 06 AUDIO TITLE "Romantico" PERFORMER "Marc Antoine" INDEX 01 18:59:52 TRACK 07 AUDIO TITLE "High Five" PERFORMER "Marc Antoine" INDEX 01 23:39:70 TRACK 08 AUDIO TITLE "New Morning (featuring Philippe Saisse)" PERFORMER "Marc Antoine" INDEX 00 28:15:12 INDEX 01 28:16:12 TRACK 09 AUDIO TITLE "Twice Upon A Time" PERFORMER "Marc Antoine" INDEX 01 31:57:54
— DON'T MODIFY THIS FILE-----------------------PERFORMER: auCDtect Task Manager, ver. 1.5.1RC4 build 1.5.1.5Copyright © 2008-2010 y-soft. All rights reservedhttp://y-soft.orgANALYZER: auCDtect: CD records authenticity detector, version 0.8.2Copyright © 2004 Oleg Berngardt. All rights reserved.Copyright © 2004 Alexander Djourik. All rights reserved.FILE: Marc Antoine — Laguna Beach.flac Size: 234882304 Hash: 9B793150AE4CEC4D9D843C49D407929C Accuracy: -m0 Conclusion: CDDA 100% Signature: 1741D04C224056F7A58903285C06CA01AA423035
22:04
117
RSS
Нет комментариев. Ваш будет первым!