Поиск

2011 Ernestine Anderson - Nightlife: Live at Dizzy's Club Coca-Cola {HighNote HCD 7213}

2011 Ernestine Anderson - Nightlife: Live at Dizzy's Club Coca-Cola {HighNote HCD 7213}
Дата записи диска:
4 апреля 2008 - 10 апреля 2010
Дата издания диска:
25 января 2011
Издатель (лейбл):
Номер по каталогу:
HCD 7213
Носитель:
CD
Битрейт аудио:
lossless
Аудиокодек:
FLAC (*.flac)
Тип рипа:
tracks+.cue
Время звучания:
52:39
Релизёр (источник):
Rfi
Треклист:

01. I Love Being Here with You (Lee-Schluger) - 5:59
02. Since I Fell for You (Johnson) - 5:22
03. All Blues (Davis) - 7:28
04. Goin' to Chicago Blues (Basie-Rushing) - 5:23
05. Nightlife (Adams-Strouse) - 8:03
06. Only Trust Your Heart (Cahn-Carter) - 8:00
07. Falling in Love with Love (Hart-Rodgers) - 4:54
08. Never Make Your Move Too Soon (Josea-King) - 7:30

Состав:
  • Ernestine Anderson — vocals
  • Houston Person — tenor saxophone
  • Lafayette Harris Jr. — piano
  • Lonnie Plaxico (#1-3,8), Chip Jackson (#4-7) — bass
  • Jerome Jennings (#1,2,4-8), Willie Jones III (#3) — drums

Recorded live at Dizzy's Club Coca-Cola, Jazz at Lincoln Center, New York on April 4, 2008 — April 10, 2010.

Exact Audio Copy V1.0 beta 3 from 29. August 2011EAC extraction logfile from 6. February 2012, 22:20Ernestine Anderson / Nightlife: Live at Dizzy's Club Coca-ColaUsed drive: HL-DT-STBD-RE WH12LS30 Adapter: 0 ID: 4Read mode: SecureUtilize accurate stream: YesDefeat audio cache: YesMake use of C2 pointers: NoRead offset correction: 667Overread into Lead-In and Lead-Out: NoFill up missing offset samples with silence: YesDelete leading and trailing silent blocks: NoNull samples used in CRC calculations: YesUsed interface: Native Win32 interface for Win NT & 2000Gap handling: Appended to previous trackUsed output format: User Defined EncoderSelected bitrate: 1024 kBit/sQuality: HighAdd ID3 tag: NoCommand line compressor: l:\Program Files (x86)\Exact Audio Copy\FLAC\FLAC.EXEAdditional command line options: -8 -V -T «ARTIST=%artist%» -T «TITLE=%title%» -T «ALBUM=%albumtitle%» -T «DATE=%year%» -T «TRACKNUMBER=%tracknr%» -T «GENRE=%genre%» -T «PERFORMER=%albuminterpret%» -T «COMPOSER=%composer%» %haslyrics%--tag-from-file=LYRICS="%lyricsfile%"%haslyrics% -T «ALBUMARTIST=%albumartist%» -T «DISCNUMBER=%cdnumber%» -T «TOTALDISCS=%totalcds%» -T «TOTALTRACKS=%numtracks%» -T «COMMENT=%comment%» %source% -o %dest%TOC of the extracted CD Track | Start | Length | Start sector | End sector — 1 | 0:00.00 | 5:58.38 | 0 | 26887 2 | 5:58.38 | 5:22.37 | 26888 | 51074 3 | 11:21.00 | 7:27.73 | 51075 | 84672 4 | 18:48.73 | 5:22.47 | 84673 | 108869 5 | 24:11.45 | 8:02.45 | 108870 | 145064 6 | 32:14.15 | 7:59.46 | 145065 | 181035 7 | 40:13.61 | 4:54.28 | 181036 | 203113 8 | 45:08.14 | 7:30.09 | 203114 | 236872Track 1 Filename K:\Audio Rips K\01 — I Love Being Here With You.wav Pre-gap length 0:00:02.00 Peak level 99.1 % Extraction speed 1.3 X Track quality 100.0 % Test CRC 4620B24E Copy CRC 4620B24E Accurately ripped (confidence 1) [4AE732D8] (AR v1) Copy OKTrack 2 Filename K:\Audio Rips K\02 — Since I Fell For You.wav Peak level 98.9 % Extraction speed 1.5 X Track quality 100.0 % Test CRC 648D3221 Copy CRC 648D3221 Accurately ripped (confidence 1) [F0076310] (AR v1) Copy OKTrack 3 Filename K:\Audio Rips K\03 — All Blues.wav Peak level 99.0 % Extraction speed 1.8 X Track quality 100.0 % Test CRC 972E5A09 Copy CRC 972E5A09 Accurately ripped (confidence 1) [EAD8BB86] (AR v1) Copy OKTrack 4 Filename K:\Audio Rips K\04 — Goin' to Chicago Blues.wav Peak level 99.0 % Extraction speed 1.9 X Track quality 100.0 % Test CRC 904726EB Copy CRC 904726EB Accurately ripped (confidence 1) [61DCA2A6] (AR v1) Copy OKTrack 5 Filename K:\Audio Rips K\05 — Nightlife.wav Peak level 99.3 % Extraction speed 2.1 X Track quality 100.0 % Test CRC A712AE31 Copy CRC A712AE31 Accurately ripped (confidence 1) [A84214EA] (AR v1) Copy OKTrack 6 Filename K:\Audio Rips K\06 — Only Trust Your Heart.wav Peak level 98.9 % Extraction speed 2.3 X Track quality 100.0 % Test CRC C1CF282C Copy CRC C1CF282C Accurately ripped (confidence 1) [8B67DA0C] (AR v1) Copy OKTrack 7 Filename K:\Audio Rips K\07 — Falling in Love With Love.wav Peak level 98.9 % Extraction speed 2.4 X Track quality 100.0 % Test CRC 4C836BB6 Copy CRC 4C836BB6 Accurately ripped (confidence 1) [0CDDF7C8] (AR v1) Copy OKTrack 8 Filename K:\Audio Rips K\08 — Never Make Your Move Too Soon.wav Peak level 99.0 % Extraction speed 2.6 X Track quality 100.0 % Test CRC 301EB162 Copy CRC 301EB162 Accurately ripped (confidence 1) [F9D50371] (AR v1) Copy OKAll tracks accurately rippedNo errors occurredEnd of status report---- CUETools DB Plugin V2.1.3[CTDB TOCID: 2aARV_Tt_lj918fACKPhtd9ztdI-] disk not present in database, Submit result: 2aARV_Tt_lj918fACKPhtd9ztdI- has been uploaded==== Log checksum 4E6AC08A064D562C70C4F5D63202A96F4F4F9F214BFEDD02F0FA6F1C0766B892 ====
REM GENRE Jazz
REM DATE 2011
REM DISCID 570C5608
REM COMMENT "ExactAudioCopy v1.0b3"
PERFORMER "Ernestine Anderson"
TITLE "Nightlife: Live at Dizzy's Club Coca-Cola"
FILE "01 - I Love Being Here with You.wav" WAVE TRACK 01 AUDIO TITLE "I Love Being Here with You" PERFORMER "Ernestine Anderson" ISRC USHNR1121301 INDEX 01 00:00:00
FILE "02 - Since I Fell for You.wav" WAVE TRACK 02 AUDIO TITLE "Since I Fell for You" PERFORMER "Ernestine Anderson" ISRC USHNR1121302 INDEX 01 00:00:00
FILE "03 - All Blues.wav" WAVE TRACK 03 AUDIO TITLE "All Blues" PERFORMER "Ernestine Anderson" ISRC USHNR1121303 INDEX 01 00:00:00
FILE "04 - Goin' to Chicago Blues.wav" WAVE TRACK 04 AUDIO TITLE "Goin' to Chicago Blues" PERFORMER "Ernestine Anderson" ISRC USHNR1121304 INDEX 01 00:00:00
FILE "05 - Nightlife.wav" WAVE TRACK 05 AUDIO TITLE "Nightlife" PERFORMER "Ernestine Anderson" ISRC USHNR1121305 INDEX 01 00:00:00
FILE "06 - Only Trust Your Heart.wav" WAVE TRACK 06 AUDIO TITLE "Only Trust Your Heart" PERFORMER "Ernestine Anderson" ISRC USHNR1121306 INDEX 01 00:00:00
FILE "07 - Falling in Love with Love.wav" WAVE TRACK 07 AUDIO TITLE "Falling in Love with Love" PERFORMER "Ernestine Anderson" ISRC USHNR1121307 INDEX 01 00:00:00
FILE "08 - Never Make Your Move Too Soon.wav" WAVE TRACK 08 AUDIO TITLE "Never Make Your Move Too Soon" PERFORMER "Ernestine Anderson" ISRC USHNR1121308 INDEX 01 00:00:00
Отчет CUETools[CUETools log; Date: 24.10.2016 19:32:14; Version: 2.1.5][CTDB TOCID: 2aARV_Tt_lj918fACKPhtd9ztdI-] found.Track | CTDB Status 1 | (8/8) Accurately ripped 2 | (8/8) Accurately ripped 3 | (8/8) Accurately ripped 4 | (8/8) Accurately ripped 5 | (8/8) Accurately ripped 6 | (8/8) Accurately ripped 7 | (8/8) Accurately ripped 8 | (8/8) Accurately ripped[AccurateRip ID: 000fd51a-006a9307-570c5608] found.Track [ CRC | V2 ] Status 01 [4ae732d8|bca98e7d] (02+10/12) Accurately ripped 02 [f0076310|9cd256e9] (02+10/12) Accurately ripped 03 [ead8bb86|f4aa7ebe] (02+10/12) Accurately ripped 04 [61dca2a6|9f7f2b14] (02+10/12) Accurately ripped 05 [a84214ea|43a0274a] (02+10/12) Accurately ripped 06 [8b67da0c|c050d458] (02+10/12) Accurately ripped 07 [0cddf7c8|99654626] (02+10/12) Accurately ripped 08 [f9d50371|53902154] (02+10/12) Accurately rippedTrack Peak [ CRC32 ] [W/O NULL] [ LOG ] — 99,3 [BCDD2AB8] [443046D6] 01 99,1 [4620B24E] [2778B388] CRC32 02 98,9 [648D3221] [77E7B353] CRC32 03 99,0 [972E5A09] [24201B5C] CRC32 04 99,0 [904726EB] [AABE810F] CRC32 05 99,3 [A712AE31] [8360A48D] CRC32 06 98,9 [C1CF282C] [7F764E02] CRC32 07 98,9 [4C836BB6] [DF79E880] CRC32 08 99,0 [301EB162] [869677B9] CRC32
13:33
79
RSS
Нет комментариев. Ваш будет первым!