Поиск

2007 Anat Fort - A Long Story {ECM ECM 1994}

2007 Anat Fort - A Long Story {ECM ECM 1994}
Стили:
Страна-производитель диска (релиза):
Germany
Дата записи диска:
март 2004
Дата издания диска:
февраль 2007
Издатель (лейбл):
Номер по каталогу:
ECM 1994
Носитель:
CD
Битрейт аудио:
lossless
Аудиокодек:
FLAC (*.flac)
Тип рипа:
tracks+.cue
Время звучания:
56:48
Наличие сканов:
  • да
Релизёр (источник):
ordo
Треклист:

01. Just Now, Var. 1 4:17
02. Morning: Good 7:24
03. Lullaby 6:04
04. Chapter Two 3:44
05. Just Now, Var. 2 4:03
06. Not a Dream? 5:27
07. Rehaired 5:59
08. As Two/Something 'Bout Camels 5:53
09. Not the Perfect Storm 7:22
10. Chapter One 4:17
11. Just Now, Var. 3 2:14

Состав:
  • Anat Fort (piano)
  • Perry Robinson (clarinet)
  • Ed Schuller (double bass)
  • Paul Motian (drums)

Recorded March 2004 at Systems Two Studio, Brooklyn by John Rosenberg and Max Ross
Edited and mixed May 2006 at Avatar Studios, New York by Manfred Eicher, Anat Fort and James A. Farber

Exact Audio Copy V0.99 prebeta 5 from 4. May 2009

EAC extraction logfile from 23. March 2010, 6:18

Anat Fort / A Long Story

Used drive  : HL-DT-STDVDRAM GH22NS40   Adapter: 2  ID: 0

Read mode               : Secure
Utilize accurate stream : Yes
Defeat audio cache      : Yes
Make use of C2 pointers : No

Read offset correction                      : 667
Overread into Lead-In and Lead-Out          : No
Fill up missing offset samples with silence : Yes
Delete leading and trailing silent blocks   : No
Null samples used in CRC calculations       : Yes
Used interface                              : Installed external ASPI interface
Gap handling                                : Appended to previous track

Used output format              : User Defined Encoder
Selected bitrate                : 768 kBit/s
Quality                         : High
Add ID3 tag                     : No
Command line compressor         : C:\Program Files (x86)\Exact Audio Copy\FLAC\FLAC.EXE
Additional command line options : -8 -V -T "ARTIST=%a" -T "TITLE=%t" -T "ALBUM=%g" -T "DATE=%y" -T "TRACKNUMBER=%n" -T "GENRE=%m" -T "COMMENT=EAC FLAC -8" %s


TOC of the extracted CD

     Track |   Start  |  Length  | Start sector | End sector 
    ---------------------------------------------------------
        1  |  0:00.00 |  4:17.39 |         0    |    19313   
        2  |  4:17.39 |  7:24.46 |     19314    |    52659   
        3  | 11:42.10 |  6:04.10 |     52660    |    79969   
        4  | 17:46.20 |  3:44.19 |     79970    |    96788   
        5  | 21:30.39 |  4:03.08 |     96789    |   115021   
        6  | 25:33.47 |  5:27.09 |    115022    |   139555   
        7  | 31:00.56 |  5:59.24 |    139556    |   166504   
        8  | 37:00.05 |  5:53.54 |    166505    |   193033   
        9  | 42:53.59 |  7:22.62 |    193034    |   226245   
       10  | 50:16.46 |  4:17.21 |    226246    |   245541   
       11  | 54:33.67 |  2:14.27 |    245542    |   255618   


Track  1

     Filename I:\Jazz Music\RIP\01 - Just Now, Var.I.wav

     Pre-gap length  0:00:02.00

     Peak level 60.4 %
     Track quality 100.0 %
     Test CRC 4FE0909C
     Copy CRC 4FE0909C
     Accurately ripped (confidence 24)  [59AB73F9]
     Copy OK

Track  2

     Filename I:\Jazz Music\RIP\02 - Morning- Good.wav

     Pre-gap length  0:00:02.54

     Peak level 75.0 %
     Track quality 99.9 %
     Test CRC A2C9CA59
     Copy CRC A2C9CA59
     Accurately ripped (confidence 25)  [EB5C4CF3]
     Copy OK

Track  3

     Filename I:\Jazz Music\RIP\03 - Lullaby.wav

     Pre-gap length  0:00:01.62

     Peak level 74.5 %
     Track quality 100.0 %
     Test CRC 77424A97
     Copy CRC 77424A97
     Accurately ripped (confidence 25)  [9FE5733B]
     Copy OK

Track  4

     Filename I:\Jazz Music\RIP\04 - Chapter Two.wav

     Pre-gap length  0:00:04.81

     Peak level 60.7 %
     Track quality 100.0 %
     Test CRC A0C1DA12
     Copy CRC A0C1DA12
     Accurately ripped (confidence 25)  [3DB3353D]
     Copy OK

Track  5

     Filename I:\Jazz Music\RIP\05 - Just Now, Var.II.wav

     Pre-gap length  0:00:00.29

     Peak level 60.1 %
     Track quality 100.0 %
     Test CRC 6828FA4A
     Copy CRC 6828FA4A
     Accurately ripped (confidence 25)  [CF061ADA]
     Copy OK

Track  6

     Filename I:\Jazz Music\RIP\06 - Not a Dream .wav

     Pre-gap length  0:00:03.72

     Peak level 99.7 %
     Track quality 100.0 %
     Test CRC 8F165707
     Copy CRC 8F165707
     Accurately ripped (confidence 25)  [DD416831]
     Copy OK

Track  7

     Filename I:\Jazz Music\RIP\07 - Rehaired.wav

     Pre-gap length  0:00:02.93

     Peak level 99.8 %
     Track quality 100.0 %
     Test CRC 293B71BE
     Copy CRC 293B71BE
     Accurately ripped (confidence 25)  [CCA51DB8]
     Copy OK

Track  8

     Filename I:\Jazz Music\RIP\08 - As Two , Something 'bout Camels.wav

     Pre-gap length  0:00:03.60

     Peak level 85.7 %
     Track quality 100.0 %
     Test CRC 759AE479
     Copy CRC 759AE479
     Accurately ripped (confidence 25)  [22FB1326]
     Copy OK

Track  9

     Filename I:\Jazz Music\RIP\09 - Not the Perfect Storm.wav

     Pre-gap length  0:00:00.97

     Peak level 99.9 %
     Track quality 100.0 %
     Test CRC 65D0D559
     Copy CRC 65D0D559
     Accurately ripped (confidence 25)  [D59D3D72]
     Copy OK

Track 10

     Filename I:\Jazz Music\RIP\10 - Chapter One.wav

     Pre-gap length  0:00:01.42

     Peak level 55.1 %
     Track quality 100.0 %
     Test CRC AFB4D97E
     Copy CRC AFB4D97E
     Accurately ripped (confidence 25)  [53D33DF6]
     Copy OK

Track 11

     Filename I:\Jazz Music\RIP\11 - Just Now, VarIII.wav

     Pre-gap length  0:00:02.89

     Peak level 60.8 %
     Track quality 100.0 %
     Test CRC 5BBF5779
     Copy CRC 5BBF5779
     Accurately ripped (confidence 25)  [07A8F013]
     Copy OK


All tracks accurately ripped

No errors occurred

End of status report
REM GENRE Jazz
REM DATE 2007
REM DISCID 910D500B
REM COMMENT "ExactAudioCopy v0.99pb5"
PERFORMER "Anat Fort"
TITLE "A Long Story"
FILE "01 - Just Now, Var.I.flac" WAVE
  TRACK 01 AUDIO
    TITLE "Just Now, Var.I"
    PERFORMER "Anat Fort"
    INDEX 01 00:00:00
  TRACK 02 AUDIO
    TITLE "Morning: Good"
    PERFORMER "Anat Fort"
    INDEX 00 04:14:73
FILE "02 - Morning- Good.flac" WAVE
    INDEX 01 00:00:00
  TRACK 03 AUDIO
    TITLE "Lullaby"
    PERFORMER "Anat Fort"
    INDEX 00 07:22:74
FILE "03 - Lullaby.flac" WAVE
    INDEX 01 00:00:00
  TRACK 04 AUDIO
    TITLE "Chapter Two"
    PERFORMER "Anat Fort"
    INDEX 00 05:59:24
FILE "04 - Chapter Two.flac" WAVE
    INDEX 01 00:00:00
  TRACK 05 AUDIO
    TITLE "Just Now, Var.II"
    PERFORMER "Anat Fort"
    INDEX 00 03:43:72
FILE "05 - Just Now, Var.II.flac" WAVE
    INDEX 01 00:00:00
  TRACK 06 AUDIO
    TITLE "Not a Dream?"
    PERFORMER "Anat Fort"
    INDEX 00 03:59:29
FILE "06 - Not a Dream .flac" WAVE
    INDEX 01 00:00:00
    INDEX 02 05:24:14
  TRACK 07 AUDIO
    TITLE "Rehaired"
    PERFORMER "Anat Fort"
    INDEX 00 05:24:14
FILE "07 - Rehaired.flac" WAVE
    INDEX 01 00:00:00
  TRACK 08 AUDIO
    TITLE "As Two / Something 'bout Camels"
    PERFORMER "Anat Fort"
    INDEX 00 05:55:54
FILE "08 - As Two , Something 'bout Camels.flac" WAVE
    INDEX 01 00:00:00
  TRACK 09 AUDIO
    TITLE "Not the Perfect Storm"
    PERFORMER "Anat Fort"
    INDEX 00 05:52:56
FILE "09 - Not the Perfect Storm.flac" WAVE
    INDEX 01 00:00:00
  TRACK 10 AUDIO
    TITLE "Chapter One"
    PERFORMER "Anat Fort"
    INDEX 00 07:21:30
FILE "10 - Chapter One.flac" WAVE
    INDEX 01 00:00:00
  TRACK 11 AUDIO
    TITLE "Just Now, VarIII"
    PERFORMER "Anat Fort"
    INDEX 00 04:14:29
FILE "11 - Just Now, VarIII.flac" WAVE
    INDEX 01 00:00:00
23:51
120
RSS
Нет комментариев. Ваш будет первым!