2006 Nina Simone - Songs to Sing: Very Best Of Nina Simone {Music Club Deluxe MCDLX 121}

2006 Nina Simone - Songs to Sing: Very Best Of Nina Simone {Music Club Deluxe MCDLX 121}
Дата издания диска:
2006
Номер по каталогу:
MCDLX 121
Носитель:
CD
Битрейт аудио:
lossless
Аудиокодек:
FLAC (*.flac)
Тип рипа:
tracks+.cue
Время звучания:
02:26:25
Наличие сканов:
  • нет
Релизёр (источник):
hao
Треклист:

1.01 Don't Let Me Be Misunderstood 2:48
1.02 See-Line Woman 2:40
1.03 My Baby Just Cares for Me 3:38
1.04 Love Me or Leave Me 3:23
1.05 Strange Fruit 3:29
1.06 I Put a Spell on You 2:36
1.07 Break Down and Let It All Out 2:40
1.08 Ain't Got No - I Got Life (Live) 4:40
1.09 The House of the Rising Sun (Live) 6:57
1.10 Do What You Gotta Do (Live) 3:48
1.11 Mississippi Goddamn (Live) 4:43
1.12 Don't Smoke in Bed 3:12
1.13 He's Got the Whole World in his Hands 3:10
1.14 Mood Indigo 4:02
1.15 I Loves You Porgy 4:11
1.16 For All We Know 4:01
1.17 Black is the Colour of my True Love's Hair 3:29
1.18 Four Women 4:28
1.19 Nobody Knows You When You're Down and Out 2:41
1.20 No Opportunity Necessary, No Experience Needed (Live) 4:04
2.01 To Be Young Gifted and Black (Live) 5:07
2.02 After You've Gone (Live) 5:40
2.03 I'll Look Around (Live) 2:46
2.04 When I Was in My Prime (Live) 4:18
2.05 Ain't No Use (Live) 2:46
2.06 You'll Never Walk Alone 3:48
2.07 Little Girl Blue 4:19
2.08 African Mailman 3:11
2.09 Central Park Blues 3:07
2.10 He Needs Me 2:30
2.11 Good Bait 5:28
2.12 Plain Gold Ring 3:51
2.13 The Assignment Song (Live) 4:55
2.14 I Sing Just to Know I'm Alive (Live) 2:33
2.15 Gin House Blues (Live) 4:56
2.16 The Other Woman (Live) 4:17
2.17 You Took My Teeth 1:10
2.18 Pirate Jenny 4:45
2.19 Zungo 2:34

Exact Audio Copy V0.99 prebeta 4 from 23. January 2008
EAC extraction logfile from 11. July 2008, 22:14
Nina Simone / Songs To Sing: The Best Of Nina Simone
Used drive : HL-DT-STDVDRW GSA-S10N Adapter: 0 ID: 1
Read mode : Secure
Utilize accurate stream : Yes
Defeat audio cache : Yes
Make use of C2 pointers : No
Read offset correction : 667
Overread into Lead-In and Lead-Out : No
Fill up missing offset samples with silence : Yes
Delete leading and trailing silent blocks : No
Null samples used in CRC calculations : Yes
Used interface : Native Win32 interface for Win NT & 2000
Gap handling : Appended to previous track
Used output format : User Defined Encoder
Selected bitrate : 320 kBit/s
Quality : High
Add ID3 tag : No
Command line compressor : C:\Program Files\Exact Audio Copy\Flac\flac.exe
Additional command line options : -V -8 -T "artist=%a" -T "title=%t" -T "album=%g" -T "date=%y" -T "tracknumber=%n" -T "genre=%m" %s
TOC of the extracted CD Track | Start | Length | Start sector | End sector --------------------------------------------------------- 1 | 0:00.00 | 2:47.73 | 0 | 12597 2 | 2:47.73 | 2:40.07 | 12598 | 24604 3 | 5:28.05 | 3:38.03 | 24605 | 40957 4 | 9:06.08 | 3:22.55 | 40958 | 56162 5 | 12:28.63 | 3:28.72 | 56163 | 71834 6 | 15:57.60 | 2:36.28 | 71835 | 83562 7 | 18:34.13 | 2:39.64 | 83563 | 95551 8 | 21:14.02 | 4:40.13 | 95552 | 116564 9 | 25:54.15 | 6:57.03 | 116565 | 147842 10 | 32:51.18 | 3:47.56 | 147843 | 164923 11 | 36:38.74 | 4:43.26 | 164924 | 186174 12 | 41:22.25 | 3:11.59 | 186175 | 200558 13 | 44:34.09 | 3:10.29 | 200559 | 214837 14 | 47:44.38 | 4:02.31 | 214838 | 233018 15 | 51:46.69 | 4:10.45 | 233019 | 251813 16 | 55:57.39 | 4:01.25 | 251814 | 269913 17 | 59:58.64 | 3:29.27 | 269914 | 285615 18 | 63:28.16 | 4:28.29 | 285616 | 305744 19 | 67:56.45 | 2:40.55 | 305745 | 317799 20 | 70:37.25 | 4:04.34 | 317800 | 336133
Track 1 Filename C:\Nina Simone - Don't Let Me Be Misunderstood.wav Pre-gap length 0:00:02.00 Peak level 87.8 % Track quality 100.0 % Test CRC B715BCC0 Copy CRC B715BCC0 Track not present in AccurateRip database Copy OK
Track 2 Filename C:\Nina Simone - See-Line Woman.wav Pre-gap length 0:00:02.51 Peak level 82.9 % Track quality 100.0 % Test CRC 4C82D0F2 Copy CRC 4C82D0F2 Track not present in AccurateRip database Copy OK
Track 3 Filename C:\Nina Simone - My Baby Just Cares For Me.wav Pre-gap length 0:00:02.51 Peak level 88.0 % Track quality 100.0 % Test CRC 58D7A98B Copy CRC 58D7A98B Track not present in AccurateRip database Copy OK
Track 4 Filename C:\Nina Simone - Love Me Or Leave Me.wav Pre-gap length 0:00:02.51 Peak level 85.7 % Track quality 100.0 % Test CRC 8527FA46 Copy CRC 8527FA46 Track not present in AccurateRip database Copy OK
Track 5 Filename C:\Nina Simone - Strange Fruit.wav Pre-gap length 0:00:02.51 Peak level 88.9 % Track quality 100.0 % Test CRC D7DE5710 Copy CRC D7DE5710 Track not present in AccurateRip database Copy OK
Track 6 Filename C:\Nina Simone - I Put A Spell On You.wav Pre-gap length 0:00:02.51 Peak level 100.0 % Track quality 99.9 % Test CRC 195A4239 Copy CRC 195A4239 Track not present in AccurateRip database Copy OK
Track 7 Filename C:\Nina Simone - Break Down & Let It All Out.wav Pre-gap length 0:00:02.51 Peak level 93.7 % Track quality 100.0 % Test CRC B8A5DF19 Copy CRC B8A5DF19 Track not present in AccurateRip database Copy OK
Track 8 Filename C:\Nina Simone - Ain't Got No - I Got Life.wav Pre-gap length 0:00:02.51 Peak level 91.2 % Track quality 100.0 % Test CRC 12024D7D Copy CRC 12024D7D Track not present in AccurateRip database Copy OK
Track 9 Filename C:\Nina Simone - The House Of The Rising Sun.wav Pre-gap length 0:00:02.51 Peak level 79.1 % Track quality 100.0 % Test CRC 7831A458 Copy CRC 7831A458 Track not present in AccurateRip database Copy OK
Track 10 Filename C:\Nina Simone - Do What You Gotta Do.wav Pre-gap length 0:00:02.51 Peak level 94.8 % Track quality 100.0 % Test CRC 21215F2F Copy CRC 21215F2F Track not present in AccurateRip database Copy OK
Track 11 Filename C:\Nina Simone - Mississippi Goddam.wav Pre-gap length 0:00:02.51 Peak level 80.0 % Track quality 100.0 % Test CRC 28455B32 Copy CRC 28455B32 Track not present in AccurateRip database Copy OK
Track 12 Filename C:\Nina Simone - Don't Smoke In Bed.wav Pre-gap length 0:00:02.51 Peak level 83.9 % Track quality 100.0 % Test CRC 486A41F0 Copy CRC 486A41F0 Track not present in AccurateRip database Copy OK
Track 13 Filename C:\Nina Simone - He's Got The Whole World In His Hands.wav Pre-gap length 0:00:02.51 Peak level 83.0 % Track quality 100.0 % Test CRC 54F0BD4E Copy CRC 54F0BD4E Track not present in AccurateRip database Copy OK
Track 14 Filename C:\Nina Simone - Mood Indigo.wav Pre-gap length 0:00:02.51 Peak level 73.7 % Track quality 99.9 % Test CRC 0628BAD4 Copy CRC 0628BAD4 Track not present in AccurateRip database Copy OK
Track 15 Filename C:\Nina Simone - I Love You Porgy.wav Pre-gap length 0:00:02.51 Peak level 81.1 % Track quality 100.0 % Test CRC 358CBBF3 Copy CRC 358CBBF3 Track not present in AccurateRip database Copy OK
Track 16 Filename C:\Nina Simone - For All We Know.wav Pre-gap length 0:00:02.51 Peak level 86.8 % Track quality 100.0 % Test CRC B67D465D Copy CRC B67D465D Track not present in AccurateRip database Copy OK
Track 17 Filename C:\Nina Simone - Black Is The Colour Of My True Love's Hair.wav Pre-gap length 0:00:02.51 Peak level 89.7 % Track quality 100.0 % Test CRC 9D9ED072 Copy CRC 9D9ED072 Track not present in AccurateRip database Copy OK
Track 18 Filename C:\Nina Simone - Four Women.wav Pre-gap length 0:00:02.51 Peak level 100.0 % Track quality 100.0 % Test CRC 11765E75 Copy CRC 11765E75 Track not present in AccurateRip database Copy OK
Track 19 Filename C:\Nina Simone - Nobody Knows You When You're Down & Out.wav Pre-gap length 0:00:02.51 Peak level 84.0 % Track quality 99.9 % Test CRC 6601396C Copy CRC 6601396C Track not present in AccurateRip database Copy OK
Track 20 Filename C:\Nina Simone - No Opportunity Necessary, No Experience Needed.wav Pre-gap length 0:00:02.51 Peak level 79.3 % Track quality 99.9 % Test CRC E1A1D409 Copy CRC E1A1D409 Track not present in AccurateRip database Copy OK
None of the tracks are present in the AccurateRip database
No errors occurred
End of status report
Exact Audio Copy V0.99 prebeta 4 from 23. January 2008
EAC extraction logfile from 11. July 2008, 23:47
Nina Simone / Songs To Sing: The Best Of Nina Simone
Used drive : HL-DT-STDVDRW GSA-S10N Adapter: 0 ID: 1
Read mode : Secure
Utilize accurate stream : Yes
Defeat audio cache : Yes
Make use of C2 pointers : No
Read offset correction : 667
Overread into Lead-In and Lead-Out : No
Fill up missing offset samples with silence : Yes
Delete leading and trailing silent blocks : No
Null samples used in CRC calculations : Yes
Used interface : Native Win32 interface for Win NT & 2000
Gap handling : Appended to previous track
Used output format : User Defined Encoder
Selected bitrate : 320 kBit/s
Quality : High
Add ID3 tag : No
Command line compressor : C:\Program Files\Exact Audio Copy\Flac\flac.exe
Additional command line options : -V -8 -T "artist=%a" -T "title=%t" -T "album=%g" -T "date=%y" -T "tracknumber=%n" -T "genre=%m" %s
TOC of the extracted CD Track | Start | Length | Start sector | End sector --------------------------------------------------------- 1 | 0:00.00 | 5:06.57 | 0 | 23006 2 | 5:06.57 | 5:40.07 | 23007 | 48513 3 | 10:46.64 | 2:45.69 | 48514 | 60957 4 | 13:32.58 | 4:17.46 | 60958 | 80278 5 | 17:50.29 | 2:46.32 | 80279 | 92760 6 | 20:36.61 | 3:47.48 | 92761 | 109833 7 | 24:24.34 | 4:19.27 | 109834 | 129285 8 | 28:43.61 | 3:10.51 | 129286 | 143586 9 | 31:54.37 | 3:07.04 | 143587 | 157615 10 | 35:01.41 | 2:30.01 | 157616 | 168866 11 | 37:31.42 | 5:28.33 | 168867 | 193499 12 | 43:00.00 | 3:50.71 | 193500 | 210820 13 | 46:50.71 | 4:55.37 | 210821 | 232982 14 | 51:46.33 | 2:33.10 | 232983 | 244467 15 | 54:19.43 | 4:56.19 | 244468 | 266686 16 | 59:15.62 | 4:17.35 | 266687 | 285996 17 | 63:33.22 | 1:09.59 | 285997 | 291230 18 | 64:43.06 | 4:45.21 | 291231 | 312626 19 | 69:28.27 | 2:33.51 | 312627 | 324152
Track 1 Filename C:\Nina Simone - To Be Young Gifted & Black.wav Pre-gap length 0:00:02.00 Peak level 64.6 % Track quality 100.0 % Test CRC 8D9C8DB2 Copy CRC 8D9C8DB2 Track not present in AccurateRip database Copy OK
Track 2 Filename C:\Nina Simone - After You've Gone.wav Pre-gap length 0:00:02.51 Peak level 98.3 % Track quality 100.0 % Test CRC 54D475C3 Copy CRC 54D475C3 Track not present in AccurateRip database Copy OK
Track 3 Filename C:\Nina Simone - I'll Look Around.wav Pre-gap length 0:00:02.51 Peak level 59.8 % Track quality 100.0 % Test CRC 18D71354 Copy CRC 18D71354 Track not present in AccurateRip database Copy OK
Track 4 Filename C:\Nina Simone - When I Was In My Prime.wav Pre-gap length 0:00:02.51 Peak level 63.1 % Track quality 100.0 % Test CRC 1061F034 Copy CRC 1061F034 Track not present in AccurateRip database Copy OK
Track 5 Filename C:\Nina Simone - Ain't No Use.wav Pre-gap length 0:00:02.51 Peak level 80.3 % Track quality 100.0 % Test CRC 5C29A0E9 Copy CRC 5C29A0E9 Track not present in AccurateRip database Copy OK
Track 6 Filename C:\Nina Simone - You'll Never Walk Alone.wav Pre-gap length 0:00:02.51 Peak level 88.3 % Track quality 100.0 % Test CRC 1651074F Copy CRC 1651074F Track not present in AccurateRip database Copy OK
Track 7 Filename C:\Nina Simone - Little Girl Blue.wav Pre-gap length 0:00:02.51 Peak level 89.0 % Track quality 100.0 % Test CRC E0F5FE03 Copy CRC E0F5FE03 Track not present in AccurateRip database Copy OK
Track 8 Filename C:\Nina Simone - African Mailman.wav Pre-gap length 0:00:02.51 Peak level 77.4 % Track quality 100.0 % Test CRC AF4D7650 Copy CRC AF4D7650 Track not present in AccurateRip database Copy OK
Track 9 Filename C:\Nina Simone - Central Park Blues.wav Pre-gap length 0:00:02.51 Peak level 77.7 % Track quality 100.0 % Test CRC FE18733E Copy CRC FE18733E Track not present in AccurateRip database Copy OK
Track 10 Filename C:\Nina Simone - He Needs Me.wav Pre-gap length 0:00:02.51 Peak level 88.9 % Track quality 100.0 % Test CRC 8F5A0D47 Copy CRC 8F5A0D47 Track not present in AccurateRip database Copy OK
Track 11 Filename C:\Nina Simone - Good Bait.wav Pre-gap length 0:00:02.51 Peak level 83.4 % Track quality 100.0 % Test CRC 6A637D79 Copy CRC 6A637D79 Track not present in AccurateRip database Copy OK
Track 12 Filename C:\Nina Simone - Plain Gold Ring.wav Pre-gap length 0:00:02.51 Peak level 88.3 % Track quality 100.0 % Test CRC 5147ACEB Copy CRC 5147ACEB Track not present in AccurateRip database Copy OK
Track 13 Filename C:\Nina Simone - The Assignment Song.wav Pre-gap length 0:00:02.51 Peak level 99.8 % Track quality 100.0 % Test CRC 324546B7 Copy CRC 324546B7 Track not present in AccurateRip database Copy OK
Track 14 Filename C:\Nina Simone - I Sing Just To Know I'm Alive.wav Pre-gap length 0:00:02.51 Peak level 99.8 % Track quality 100.0 % Test CRC FB622006 Copy CRC FB622006 Track not present in AccurateRip database Copy OK
Track 15 Filename C:\Nina Simone - Gin House Blues.wav Pre-gap length 0:00:02.51 Peak level 86.5 % Track quality 100.0 % Test CRC 9CD9C1B1 Copy CRC 9CD9C1B1 Track not present in AccurateRip database Copy OK
Track 16 Filename C:\Nina Simone - The Other Woman.wav Pre-gap length 0:00:02.51 Peak level 99.8 % Track quality 100.0 % Test CRC 4D7F3299 Copy CRC 4D7F3299 Track not present in AccurateRip database Copy OK
Track 17 Filename C:\Nina Simone - You Took My Teeth.wav Pre-gap length 0:00:02.51 Peak level 100.0 % Track quality 100.0 % Test CRC 1477D817 Copy CRC 1477D817 Track not present in AccurateRip database Copy OK
Track 18 Filename C:\Nina Simone - Pirate Jenny.wav Pre-gap length 0:00:02.51 Peak level 100.0 % Track quality 100.0 % Test CRC D95F489D Copy CRC D95F489D Track not present in AccurateRip database Copy OK
Track 19 Filename C:\Nina Simone - Zungo.wav Pre-gap length 0:00:02.51 Peak level 99.8 % Track quality 100.0 % Test CRC 4391F858 Copy CRC 4391F858 Track not present in AccurateRip database Copy OK
None of the tracks are present in the AccurateRip database
No errors occurred
End of status report
Приватный Нет (DHT включён)
Хэш 284FF6D4BB7AE813096D7C03104778BA7BA1442F
Размер 657.60 Мб (689,547,108 байт) » файлов: 47 [ Список файлов ]
Участники 0 раздают, 0 качают (0 участников всего)
Внешние участники Нет внешних трекеров
Скорость Сейчас никто не качает
13:31
70
RSS
Нет комментариев. Ваш будет первым!