Поиск

2006 Georgie Auld - Swingin in the Land of Hi-Fi {Jassmine JASCD 429}

2006 Georgie Auld - Swingin in the Land of Hi-Fi {Jassmine JASCD 429}
Стили:
Страна-производитель диска (релиза):
Czech Republic
Дата издания диска:
9 мая 2006
Издатель (лейбл):
Номер по каталогу:
JASCD 429
Носитель:
CD
Битрейт аудио:
lossless
Аудиокодек:
FLAC (*.flac)
Тип рипа:
tracks+.cue
Время звучания:
01:07:18
Наличие сканов:
  • да
Релизёр (источник):
yowlz
Треклист:

01. In The Land Of Hi-Fi [04:14]
02. For You [02:24]
03. Until The Real Thing Come Along [02:21]
04. Tippin' In [03:10]
05. Sunday Kind Of Love [02:25]
06. I May Be Wrong [03:54]
07. Swingin' In Moore Park [03:04]
08. If I Loved You [02:46]
09. Dinah [02:34]
10. They Can't Take That Away From Me [02:46]
11. My Blue Heaven [02:57]
12. Love Is Just Around The Corner [02:58]
13. Back Home Again In Indiana [02:53]
14. Blue Lou [02:26]
15. Too Marvelous For Words [02:45]
16. Sweet Sue [02:44]
17. Laura [02:27]
18. I Get A Kick Out Of You [02:11]
19. Rosetta [02:51]
20. Sweet Lorraine [02:28]
21. Old Rockin' Chair [02:24]
22. Got A Date With An Angel [02:30]
23. Prisoner's Song [03:03]
24. Frankie And Johnny [02:51]

Состав:
  • Saxophone George Auld
  • Arrangements Billy May
  • Trumpet Ray Linn
  • Trumpet Maynard Ferguson
  • Trumpet Manny Klein
  • Trumpet Conrad Gozzo
  • Trombone Si Zentner
  • Trombone Pullman "Tommy" Pederson
  • Trombone Frank Rosolino
  • Saxophone Willie Smith
  • Saxophone Willie Schwartz
  • Saxophone Ted Nash
  • Saxophone Skeets Herfurt
  • Saxophone Chuck Gentry
  • Saxophone Babe Russin
  • Piano Arnold Ross
  • Piano Andrй Previn
  • Guitar Barney Kessel
  • Guitar Al Hendrickson
  • Drums Irv Kottler
  • Drums Alvin Stoller
  • Bass Joe Mondragon
  • Bass Joe Comfort
Exact Audio Copy V1.0 beta 1 from 15. November 2010EAC extraction logfile from 2. September 2011, 23:43Georgie Auld / Swingin' In The Land Of Hi-FiUsed drive: TSSTcorpCDDVDW SH-S203N Adapter: 0 ID: 2Read mode: SecureUtilize accurate stream: YesDefeat audio cache: YesMake use of C2 pointers: NoRead offset correction: 6Overread into Lead-In and Lead-Out: NoFill up missing offset samples with silence: YesDelete leading and trailing silent blocks: NoNull samples used in CRC calculations: YesUsed interface: Installed external ASPI interfaceGap handling: Appended to previous trackUsed output format: User Defined EncoderSelected bitrate: 768 kBit/sQuality: HighAdd ID3 tag: NoCommand line compressor: C:\Program Files\Exact Audio Copy-NEW\Flac\flac.exeAdditional command line options: -8 -V -T «ARTIST=%a» -T «TITLE=%t» -T «ALBUM=%g» -T «DATE=%y» -T «TRACKNUMBER=%n» -T «TOTALTRACKS=%x» -T «GENRE=%m» -T «ALBUMARTIST=%v» -T «ALBUM ARTIST=%v» -T «COMMENT=EAC V1.01b1, Secure Mode, Test & Copy, AccurateRip, FLTOC of the extracted CD Track | Start | Length | Start sector | End sector — 1 | 0:00.00 | 4:17.05 | 0 | 19279 2 | 4:17.05 | 2:27.40 | 19280 | 30344 3 | 6:44.45 | 2:24.33 | 30345 | 41177 4 | 9:09.03 | 3:12.56 | 41178 | 55633 5 | 12:21.59 | 2:27.42 | 55634 | 66700 6 | 14:49.26 | 3:56.43 | 66701 | 84443 7 | 18:45.69 | 3:07.10 | 84444 | 98478 8 | 21:53.04 | 2:49.20 | 98479 | 111173 9 | 24:42.24 | 2:37.40 | 111174 | 122988 10 | 27:19.64 | 2:49.09 | 122989 | 135672 11 | 30:08.73 | 2:59.72 | 135673 | 149169 12 | 33:08.70 | 3:00.51 | 149170 | 162720 13 | 36:09.46 | 2:55.61 | 162721 | 175906 14 | 39:05.32 | 2:29.11 | 175907 | 187092 15 | 41:34.43 | 2:47.65 | 187093 | 199682 16 | 44:22.33 | 2:47.40 | 199683 | 212247 17 | 47:09.73 | 2:29.42 | 212248 | 223464 18 | 49:39.40 | 2:14.15 | 223465 | 233529 19 | 51:53.55 | 2:54.06 | 233530 | 246585 20 | 54:47.61 | 2:31.28 | 246586 | 257938 21 | 57:19.14 | 2:27.20 | 257939 | 268983 22 | 59:46.34 | 2:32.73 | 268984 | 280456 23 | 62:19.32 | 3:06.34 | 280457 | 294440 24 | 65:25.66 | 2:51.02 | 294441 | 307267Track 1 Filename J:\New Rips\Georgie Auld — Swingin' In The Land Of Hi-Fi (2006) [FLAC]\01 — In The Land Of Hi-Fi.wav Pre-gap length 0:00:02.00 Peak level 94.2 % Extraction speed 1.7 X Track quality 100.0 % Test CRC 53F7AD82 Copy CRC 53F7AD82 Accurately ripped (confidence 1) [FF5048D1] Copy OKTrack 2 Filename J:\New Rips\Georgie Auld — Swingin' In The Land Of Hi-Fi (2006) [FLAC]\02 — For You.wav Pre-gap length 0:00:02.41 Peak level 94.2 % Extraction speed 1.7 X Track quality 100.0 % Test CRC BEABED86 Copy CRC BEABED86 Accurately ripped (confidence 1) [4760B091] Copy OKTrack 3 Filename J:\New Rips\Georgie Auld — Swingin' In The Land Of Hi-Fi (2006) [FLAC]\03 — Until The Real Thing Come Along.wav Pre-gap length 0:00:02.41 Peak level 94.3 % Extraction speed 1.5 X Track quality 99.9 % Test CRC 7956D26D Copy CRC 7956D26D Accurately ripped (confidence 1) [3521D41A] Copy OKTrack 4 Filename J:\New Rips\Georgie Auld — Swingin' In The Land Of Hi-Fi (2006) [FLAC]\04 — Tippin' In.wav Pre-gap length 0:00:02.41 Peak level 94.2 % Extraction speed 2.0 X Track quality 100.0 % Test CRC DBCEDF50 Copy CRC DBCEDF50 Accurately ripped (confidence 1) [001E2E39] Copy OKTrack 5 Filename J:\New Rips\Georgie Auld — Swingin' In The Land Of Hi-Fi (2006) [FLAC]\05 — Sunday Kind Of Love.wav Pre-gap length 0:00:02.41 Peak level 84.0 % Extraction speed 2.0 X Track quality 100.0 % Test CRC 94E60DCB Copy CRC 94E60DCB Accurately ripped (confidence 1) [5BBD8B5E] Copy OKTrack 6 Filename J:\New Rips\Georgie Auld — Swingin' In The Land Of Hi-Fi (2006) [FLAC]\06 — I May Be Wrong.wav Pre-gap length 0:00:02.41 Peak level 90.9 % Extraction speed 2.3 X Track quality 100.0 % Test CRC 83D5FF8F Copy CRC 83D5FF8F Accurately ripped (confidence 1) [1724E9E5] Copy OKTrack 7 Filename J:\New Rips\Georgie Auld — Swingin' In The Land Of Hi-Fi (2006) [FLAC]\07 — Swingin' In Moore Park.wav Pre-gap length 0:00:02.41 Peak level 84.0 % Extraction speed 2.3 X Track quality 100.0 % Test CRC 051D7EC2 Copy CRC 051D7EC2 Accurately ripped (confidence 1) [1DE26E74] Copy OKTrack 8 Filename J:\New Rips\Georgie Auld — Swingin' In The Land Of Hi-Fi (2006) [FLAC]\08 — If I Loved You.wav Pre-gap length 0:00:02.41 Peak level 94.1 % Extraction speed 2.4 X Track quality 100.0 % Test CRC A3FE762B Copy CRC A3FE762B Accurately ripped (confidence 1) [5CCB86F6] Copy OKTrack 9 Filename J:\New Rips\Georgie Auld — Swingin' In The Land Of Hi-Fi (2006) [FLAC]\09 — Dinah.wav Pre-gap length 0:00:02.40 Peak level 94.2 % Extraction speed 2.4 X Track quality 100.0 % Test CRC 5A3496EE Copy CRC 5A3496EE Accurately ripped (confidence 1) [4E2DF276] Copy OKTrack 10 Filename J:\New Rips\Georgie Auld — Swingin' In The Land Of Hi-Fi (2006) [FLAC]\10 — They Can't Take That Away From Me.wav Pre-gap length 0:00:02.41 Peak level 94.2 % Extraction speed 2.5 X Track quality 100.0 % Test CRC 79E7B19F Copy CRC 79E7B19F Accurately ripped (confidence 1) [78180787] Copy OKTrack 11 Filename J:\New Rips\Georgie Auld — Swingin' In The Land Of Hi-Fi (2006) [FLAC]\11 — My Blue Heaven.wav Pre-gap length 0:00:02.41 Peak level 94.3 % Extraction speed 2.0 X Track quality 99.9 % Test CRC 5B246E07 Copy CRC 5B246E07 Accurately ripped (confidence 1) [D4ABFB48] Copy OKTrack 12 Filename J:\New Rips\Georgie Auld — Swingin' In The Land Of Hi-Fi (2006) [FLAC]\12 — Love Is Just Around The Corner.wav Pre-gap length 0:00:02.41 Peak level 94.2 % Extraction speed 2.7 X Track quality 100.0 % Test CRC EE934EE4 Copy CRC EE934EE4 Accurately ripped (confidence 1) [6470542B] Copy OKTrack 13 Filename J:\New Rips\Georgie Auld — Swingin' In The Land Of Hi-Fi (2006) [FLAC]\13 — Back Home Again In Indiana.wav Pre-gap length 0:00:02.41 Peak level 94.2 % Extraction speed 2.8 X Track quality 100.0 % Test CRC 7E7ABE29 Copy CRC 7E7ABE29 Accurately ripped (confidence 1) [E7271B1E] Copy OKTrack 14 Filename J:\New Rips\Georgie Auld — Swingin' In The Land Of Hi-Fi (2006) [FLAC]\14 — Blue Lou.wav Pre-gap length 0:00:02.40 Peak level 94.2 % Extraction speed 2.8 X Track quality 100.0 % Test CRC 4CC4CD4C Copy CRC 4CC4CD4C Accurately ripped (confidence 1) [0212D858] Copy OKTrack 15 Filename J:\New Rips\Georgie Auld — Swingin' In The Land Of Hi-Fi (2006) [FLAC]\15 — Too Marvelous For Words.wav Pre-gap length 0:00:02.41 Peak level 94.3 % Extraction speed 2.9 X Track quality 100.0 % Test CRC 7F0460AC Copy CRC 7F0460AC Accurately ripped (confidence 1) [D62784BC] Copy OKTrack 16 Filename J:\New Rips\Georgie Auld — Swingin' In The Land Of Hi-Fi (2006) [FLAC]\16 — Sweet Sue.wav Pre-gap length 0:00:02.41 Peak level 94.3 % Extraction speed 3.0 X Track quality 100.0 % Test CRC 7C18DEBD Copy CRC 7C18DEBD Accurately ripped (confidence 1) [BEE5AA80] Copy OKTrack 17 Filename J:\New Rips\Georgie Auld — Swingin' In The Land Of Hi-Fi (2006) [FLAC]\17 — Laura.wav Pre-gap length 0:00:02.41 Peak level 94.2 % Extraction speed 3.0 X Track quality 100.0 % Test CRC F2EC4C84 Copy CRC F2EC4C84 Accurately ripped (confidence 1) [5CB1396D] Copy OKTrack 18 Filename J:\New Rips\Georgie Auld — Swingin' In The Land Of Hi-Fi (2006) [FLAC]\18 — I Get A Kick Out Of You.wav Pre-gap length 0:00:02.41 Peak level 94.2 % Extraction speed 2.9 X Track quality 100.0 % Test CRC 8AFFC7DC Copy CRC 8AFFC7DC Accurately ripped (confidence 1) [84A6AC10] Copy OKTrack 19 Filename J:\New Rips\Georgie Auld — Swingin' In The Land Of Hi-Fi (2006) [FLAC]\19 — Rosetta.wav Pre-gap length 0:00:02.41 Peak level 94.3 % Extraction speed 3.2 X Track quality 100.0 % Test CRC D8348D1F Copy CRC D8348D1F Accurately ripped (confidence 1) [0C0443FC] Copy OKTrack 20 Filename J:\New Rips\Georgie Auld — Swingin' In The Land Of Hi-Fi (2006) [FLAC]\20 — Sweet Lorraine.wav Pre-gap length 0:00:02.41 Peak level 94.3 % Extraction speed 3.1 X Track quality 100.0 % Test CRC 2626FCBE Copy CRC 2626FCBE Accurately ripped (confidence 1) [1B81EA19] Copy OKTrack 21 Filename J:\New Rips\Georgie Auld — Swingin' In The Land Of Hi-Fi (2006) [FLAC]\21 — Old Rockin' Chair.wav Pre-gap length 0:00:02.41 Peak level 94.3 % Extraction speed 3.1 X Track quality 100.0 % Test CRC 1EF93DB0 Copy CRC 1EF93DB0 Accurately ripped (confidence 1) [45516BD9] Copy OKTrack 22 Filename J:\New Rips\Georgie Auld — Swingin' In The Land Of Hi-Fi (2006) [FLAC]\22 — Got A Date With An Angel.wav Pre-gap length 0:00:02.41 Peak level 94.3 % Extraction speed 3.3 X Track quality 100.0 % Test CRC 58E8AE3D Copy CRC 58E8AE3D Accurately ripped (confidence 1) [B1245A45] Copy OKTrack 23 Filename J:\New Rips\Georgie Auld — Swingin' In The Land Of Hi-Fi (2006) [FLAC]\23 — Prisoner's Song.wav Pre-gap length 0:00:02.41 Peak level 94.2 % Extraction speed 3.4 X Track quality 100.0 % Test CRC 08E5B7E1 Copy CRC 08E5B7E1 Accurately ripped (confidence 1) [D7BE5B6B] Copy OKTrack 24 Filename J:\New Rips\Georgie Auld — Swingin' In The Land Of Hi-Fi (2006) [FLAC]\24 — Frankie And Johnny.wav Pre-gap length 0:00:02.41 Peak level 94.2 % Extraction speed 2.3 X Track quality 99.9 % Test CRC 027D6D0B Copy CRC 027D6D0B Accurately ripped (confidence 1) [B8CEC52B] Copy OKAll tracks accurately rippedNo errors occurredEnd of status report==== Log checksum A029BF2152B554701102611B5C9350424EFEC32B8B7DB5EA94805EC7743F6B76 ====
REM GENRE Jazz
REM DATE 2006
REM DISCID 63100018
REM COMMENT "ExactAudioCopy v1.0b1"
PERFORMER "Georgie Auld"
TITLE "Swingin' In The Land Of Hi-Fi"
FILE "01 - In The Land Of Hi-Fi.flac" WAVE TRACK 01 AUDIO TITLE "In The Land Of Hi-Fi" PERFORMER "Georgie Auld" INDEX 01 00:00:00 TRACK 02 AUDIO TITLE "For You" PERFORMER "Georgie Auld" INDEX 00 04:14:39
FILE "02 - For You.flac" WAVE INDEX 01 00:00:00 TRACK 03 AUDIO TITLE "Until The Real Thing Come Along" PERFORMER "Georgie Auld" INDEX 00 02:24:74
FILE "03 - Until The Real Thing Come Along.flac" WAVE INDEX 01 00:00:00 TRACK 04 AUDIO TITLE "Tippin' In" PERFORMER "Georgie Auld" INDEX 00 02:21:67
FILE "04 - Tippin' In.flac" WAVE INDEX 01 00:00:00 TRACK 05 AUDIO TITLE "Sunday Kind Of Love" PERFORMER "Georgie Auld" INDEX 00 03:10:15
FILE "05 - Sunday Kind Of Love.flac" WAVE INDEX 01 00:00:00 TRACK 06 AUDIO TITLE "I May Be Wrong" PERFORMER "Georgie Auld" INDEX 00 02:25:01
FILE "06 - I May Be Wrong.flac" WAVE INDEX 01 00:00:00 TRACK 07 AUDIO TITLE "Swingin' In Moore Park" PERFORMER "Georgie Auld" INDEX 00 03:54:02
FILE "07 - Swingin' In Moore Park.flac" WAVE INDEX 01 00:00:00 TRACK 08 AUDIO TITLE "If I Loved You" PERFORMER "Georgie Auld" INDEX 00 03:04:44
FILE "08 - If I Loved You.flac" WAVE INDEX 01 00:00:00 TRACK 09 AUDIO TITLE "Dinah" PERFORMER "Georgie Auld" INDEX 00 02:46:55
FILE "09 - Dinah.flac" WAVE INDEX 01 00:00:00 TRACK 10 AUDIO TITLE "They Can't Take That Away From Me" PERFORMER "Georgie Auld" INDEX 00 02:34:74
FILE "10 - They Can't Take That Away From Me.flac" WAVE INDEX 01 00:00:00 TRACK 11 AUDIO TITLE "My Blue Heaven" PERFORMER "Georgie Auld" INDEX 00 02:46:43
FILE "11 - My Blue Heaven.flac" WAVE INDEX 01 00:00:00 TRACK 12 AUDIO TITLE "Love Is Just Around The Corner" PERFORMER "Georgie Auld" INDEX 00 02:57:31
FILE "12 - Love Is Just Around The Corner.flac" WAVE INDEX 01 00:00:00 TRACK 13 AUDIO TITLE "Back Home Again In Indiana" PERFORMER "Georgie Auld" INDEX 00 02:58:10
FILE "13 - Back Home Again In Indiana.flac" WAVE INDEX 01 00:00:00 TRACK 14 AUDIO TITLE "Blue Lou" PERFORMER "Georgie Auld" INDEX 00 02:53:21
FILE "14 - Blue Lou.flac" WAVE INDEX 01 00:00:00 TRACK 15 AUDIO TITLE "Too Marvelous For Words" PERFORMER "Georgie Auld" INDEX 00 02:26:45
FILE "15 - Too Marvelous For Words.flac" WAVE INDEX 01 00:00:00 TRACK 16 AUDIO TITLE "Sweet Sue" PERFORMER "Georgie Auld" INDEX 00 02:45:24
FILE "16 - Sweet Sue.flac" WAVE INDEX 01 00:00:00 TRACK 17 AUDIO TITLE "Laura" PERFORMER "Georgie Auld" INDEX 00 02:44:74
FILE "17 - Laura.flac" WAVE INDEX 01 00:00:00 TRACK 18 AUDIO TITLE "I Get A Kick Out Of You" PERFORMER "Georgie Auld" INDEX 00 02:27:01
FILE "18 - I Get A Kick Out Of You.flac" WAVE INDEX 01 00:00:00 TRACK 19 AUDIO TITLE "Rosetta" PERFORMER "Georgie Auld" INDEX 00 02:11:49
FILE "19 - Rosetta.flac" WAVE INDEX 01 00:00:00 TRACK 20 AUDIO TITLE "Sweet Lorraine" PERFORMER "Georgie Auld" INDEX 00 02:51:40
FILE "20 - Sweet Lorraine.flac" WAVE INDEX 01 00:00:00 TRACK 21 AUDIO TITLE "Old Rockin' Chair" PERFORMER "Georgie Auld" INDEX 00 02:28:62
FILE "21 - Old Rockin' Chair.flac" WAVE INDEX 01 00:00:00 TRACK 22 AUDIO TITLE "Got A Date With An Angel" PERFORMER "Georgie Auld" INDEX 00 02:24:54
FILE "22 - Got A Date With An Angel.flac" WAVE INDEX 01 00:00:00 TRACK 23 AUDIO TITLE "Prisoner's Song" PERFORMER "Georgie Auld" INDEX 00 02:30:32
FILE "23 - Prisoner's Song.flac" WAVE INDEX 01 00:00:00 TRACK 24 AUDIO TITLE "Frankie And Johnny" PERFORMER "Georgie Auld" INDEX 00 03:03:68
FILE "24 - Frankie And Johnny.flac" WAVE INDEX 01 00:00:00
17:50
61
RSS
Нет комментариев. Ваш будет первым!