2004 John Abercrombie - Class Trip {ECM 1846 / 038 1182}

2004 John Abercrombie - Class Trip {ECM 1846 / 038 1182}
Стили:
Modern Creative, Structured Improvisation, Guitar Jazz
Страна-производитель диска (релиза):
USA
Дата записи диска:
февраль 2003
Дата издания диска:
26 апреля 2004
Издатель (лейбл):
ECM
Номер по каталогу:
ECM 1846 / 038 1182
Носитель:
CD
Битрейт аудио:
lossless
Аудиокодек:
APE (*.ape)
Тип рипа:
image+.cue
Время звучания:
71:56
Наличие сканов:
  • нет
Релизёр (источник):
dragon13
Треклист:

01. Dansir (9:31)
02. Risky Business (7:38)
03. Descending Grace (8:56)
04. Illinoise (5:35)
05. Cat Walk (7:55)
06. Excuse My Shoes (8:28)
07. Swirls (6:06)
08. Jack and Betty (3:39)
09. Class Trip (7:29)
10. Soldier's Song (3:02)
11. Epilogue (3:37)

Состав:
  • John Abercrombie Composer, Guitar
  • Joey Baron Composer, Drums
  • Manfred Eicher Producer
  • James Farber Engineer
  • Mark Feldman Composer, Violin
  • Marc Johnson Double Bass
  • Anders Jormin Primary Artist
  • Tom Rainey Primary Artist
  • John Taylor Primary Artist
<spoiler title="Лог создания рипа"><pre>EAC extraction logfile from 8. December 2007, 11:53 for CD
John Abercrombie / Class Trip
Used drive : TOSHIBA DVD-ROM SD-M1402 Adapter: 1 ID: 0
Read mode : Secure with NO C2, accurate stream, disable cache
Read offset correction : -472
Overread into Lead-In and Lead-Out : No
Used output format : Internal WAV Routines
44.100 Hz; 16 Bit; Stereo
Other options :
Fill up missing offset samples with silence : Yes
Delete leading and trailing silent blocks : No
Installed external ASPI interface
Range status and errors
Selected range
Filename E:\Torrents\John Abercrombie - Class Trip\John Abercrombie - Class Trip.wav
Peak level 98.8 %
Range quality 99.8 %
CRC B95270C5
Copy OK
No errors occured
End of status report
<spoiler title="CUETools log"><pre>[CUETools log; Date: 24.04.2011 9:22:46; Version: 2.1.1]
[CTDB TOCID: s2TZx.EfWfrQpkOn1bsHrbF5d_w-] disk not present in database.
[AccurateRip ID: 0021a685-011bc3dd-a110e10b] found.
Track [ CRC ] Status 01 [29a0cd0c] (00/31) No match 02 [c47352c9] (00/31) No match 03 [e6805be4] (00/31) No match 04 [ee95e231] (00/31) No match 05 [1a1c8751] (00/31) No match 06 [2bd2fc01] (00/31) No match 07 [7478cd87] (00/32) No match 08 [cd02e754] (00/29) No match 09 [87c36c3b] (00/31) No match 10 [0ed0e14c] (00/31) No match 11 [8794f9b8] (00/31) No match
Offsetted by -1639: 01 [7bec7efb] (03/31) Accurately ripped 02 [746bb482] (03/31) Accurately ripped 03 [7be54212] (00/31) No match but offset 04 [49875202] (03/31) Accurately ripped 05 [a288c206] (03/31) Accurately ripped 06 [5fa6dfcc] (00/31) No match but offset 07 [d70e505e] (03/32) Accurately ripped 08 [610b1296] (03/29) Accurately ripped 09 [4ac69a16] (03/31) Accurately ripped 10 [06b9fbfa] (03/31) Accurately ripped 11 [74d4384e] (03/31) Accurately ripped
Offsetted by -975: 01 [8331a323] (16/31) Accurately ripped 02 [0f74421a] (16/31) Accurately ripped 03 [0ae435e2] (00/31) No match but offset 04 [70e847da] (15/31) Accurately ripped 05 [c8d34e3e] (16/31) Accurately ripped 06 [09adcf94] (00/31) No match but offset 07 [dc91b446] (16/32) Accurately ripped 08 [e148bd46] (14/29) Accurately ripped 09 [52255f5e] (16/31) Accurately ripped 10 [29b5fbca] (16/31) Accurately ripped 11 [d31cffde] (16/31) Accurately ripped
Offsetted by -667: 01 [ef6f028f] (12/31) Accurately ripped 02 [58e8cdce] (12/31) Accurately ripped 03 [6a85a6fa] (00/31) No match but offset 04 [f54b3b6e] (13/31) Accurately ripped 05 [c05ec0a2] (12/31) Accurately ripped 06 [06cfdf30] (00/31) No match but offset 07 [4c9ed7d2] (13/32) Accurately ripped 08 [654054ee] (12/29) Accurately ripped 09 [e1e6ec3a] (12/31) Accurately ripped 10 [607e26e2] (12/31) Accurately ripped 11 [41292b16] (12/31) Accurately ripped
Track Peak [ CRC32 ] [W/O NULL] [ LOG ] -- 98,8 [B95270C5] [B95E3D06] CRC32 01 98,8 [38B991AB] [C0CBDF82] 02 82,1 [7BA1CBFE] [2FB161D0] 03 98,7 [7FE1E5B6] [E97393DD] 04 98,6 [9A1C6500] [70DD6207] 05 76,5 [B8402B70] [5980D66B] 06 95,7 [D0F55AD1] [5FF0C5FD] 07 98,7 [35CBF218] [2AE9D29C] 08 54,7 [DE429E82] [70E7AF12] 09 84,6 [F4D02A3D] [6F62E153] 10 42,8 [E94CF29D] [C3768E1C] 11 67,6 [E2EC10E9] [A02EEF14]
Приватный Нет (DHT включён)
Хэш AE84C07B322A4E6C2EDDE14CAA7BE22969AC4F52
Размер 372.88 Мб (390,990,136 байт) » файлов: 4 [ Список файлов ]
Участники 0 раздают, 0 качают (0 участников всего)
Внешние участники 1 раздают, 0 качают (1 участников всего)
Скорость Сейчас никто не качает
04:01
16
RSS
Нет комментариев. Ваш будет первым!