Поиск

2003 James Carter - Gardenias for Lady Day {Columbia CH 89032}

2003 James Carter - Gardenias for Lady Day {Columbia CH 89032}
Дата издания диска:
2003
Номер по каталогу:
CH 89032
Носитель:
CD
Битрейт аудио:
lossless
Аудиокодек:
FLAC (*.flac)
Тип рипа:
image+.cue
Время звучания:
46 :13
Наличие сканов:
  • да
Релизёр (источник):
funny_horse

Треклист:
01. Gloria 06:01
02. Sunset 05:23
03. (I Wonder) Where Our Love Has Gone 06:20
04. I'm In A Low Down Groove 04:39
05. Strange Fruit 04:18
06. A Flower Is A Lovesome Thing 05:53
07. Indian Summer 06:51
08. More Than You Know 06:37
Состав:
  • Yves Beauvais Producer
  • James Carter Arranger, Baritone, Clarinet (Bass), Double Bass, Sax (Baritone), Sax (Mezzo-Soprano), Sax (Soprano), Sax (Tenor)
  • Erik Charleston Vibraphone, Wind Machine
  • Greg Cohen Arranger, String Conductor
  • John Hicks Piano
  • Danny Kopelson Engineer
  • Victor Lewis Drums
  • Phil Myers French Horn
  • Jeff Nelson & Covenant Trombone (Bass)
  • Sandra Park Concert Master, Violin
  • Erik Ralske French Horn
  • Cassius Richmond Arranger, String Arrangements
  • Robert Rinehart, Tom Rosenthal Viola
  • Sarah Seiver, Mina Smith, Bruce Wang, Eileen Moon, Jeanne LeBlanc, Elizabeth Dyson Cello
  • Peter Washington Bass
  • Sharon Yamada, Sarah Kim, Myung Hi Kim, Lisa Kim, Ann Kim Violin

Записано в Avatar Studio C, Sony Studio B, New York, NY

Лог создания рипа
Exact Audio Copy V0.99 prebeta 3 from 28. July 2007

Отчёт EAC об извлечении, выполненном 13. сентября 2008, 22:43

James Carter / Gardenias for Lady Day

Дисковод: Optiarc DVD RW AD-7173S Adapter: 1 ID: 0

Режим чтения : Достоверность
Использование точного потока : Да
Отключение кэша аудио : Да
Использование указателей C2 : Нет

Коррекция смещения при чтении : 48
Способность читать области Lead-in и Lead-out : Нет
Заполнение пропущенных сэмплов тишиной : Да
Удаление блоков с тишиной в начале и конце : Нет
При вычислениях CRC использовались нулевые сэмплы : Да
Интерфейс : Установленный внешний ASPI-интерфейс

Выходной формат : Пользовательский кодировщик
Выбранный битрейт : 768 kBit/s
Качество : Высокий
Добавление ID3-тэга : Нет
Утилита сжатия : C:\Program Files\Exact Audio Copy\FLAC\FLAC.EXE
Дополнительные параметры : -6 -V -T "ARTIST=%a" -T "TITLE=%t" -T "ALBUM=%g" -T "DATE=%y" -T "TRACKNUMBER=%n" -T "GENRE=%m" -T "COMMENT=%e" %s -o %d

TOC извлечённого CD

Трек | Старт | Длительность | Начальный сектор | Конечный сектор
---------------------------------------------------------------------
1 | 0:00.00 | 6:01.72 | 0 | 27146
2 | 6:01.72 | 5:24.58 | 27147 | 51504
3 | 11:26.55 | 6:22.02 | 51505 | 80156
4 | 17:48.57 | 4:39.30 | 80157 | 101111
5 | 22:28.12 | 4:20.43 | 101112 | 120654
6 | 26:48.55 | 5:54.32 | 120655 | 147236
7 | 32:43.12 | 6:52.45 | 147237 | 178181
8 | 39:35.57 | 6:37.25 | 178182 | 207981

Характеристики диапазона извлечения и сообщения об ошибках

Выбранный диапазон

Имя файла G:\My Docs 2\My Music 2\James Carter - Gardenias for Lady Day\James Carter - Gardenias for Lady Day.wav

Пиковый уровень 100.0 %
Качество диапазона 99.9 %
CRC копии 25A01862
Копирование... OK

Ошибок не произошло

AccurateRip: сводка

Трек 1 точное извлечение (доверие 3) [0F582A51]
Трек 2 точное извлечение (доверие 3) [CC98986A]
Трек 3 точное извлечение (доверие 3) [19EB11D6]
Трек 4 точное извлечение (доверие 3) [63CB7B2C]
Трек 5 точное извлечение (доверие 3) [38032417]
Трек 6 точное извлечение (доверие 3) [7B08A351]
Трек 7 точное извлечение (доверие 3) [66AE0241]
Трек 8 точное извлечение (доверие 3) [B2B310EB]

Все треки извлечены точно

Конец отчёта
Приватный:
Нет (DHT включён)
Размер:
300.52 Мб (315,114,514 байт) » файлов: 11
Участники:
0 раздают, 0 качают (0 участников всего)
Внешние участники:
1 раздают, 0 качают (1 участников всего) [ Обновить ]
22:52
80
RSS
Нет комментариев. Ваш будет первым!