2000 VA - This Is Acid Jazz, Vol. 7: Steppin' Out {Instinct 514}

2000 VA - This Is Acid Jazz, Vol. 7: Steppin' Out {Instinct 514}
Дата издания диска:
25 апреля 2000
Номер по каталогу:
INS514-2
Носитель:
CD
Битрейт аудио:
lossless
Аудиокодек:
FLAC (*.flac)
Тип рипа:
tracks+.cue
Время звучания:
50:13
Наличие сканов:
  • да
Релизёр (источник):
alekow
Треклист:

01. Sharpshooters - Funk Shack West    [4:48]
02. The JB Horns - I Like it Like That    [4:16]
03. The Chris Bangs Project - Play To Win    [5:00]
04. Woody Cunningham - Tonite    [4:52]
05. Soundscape UK - Space Girls    [5:01]
06. CFM Band - Make It Funky CFM    [5:39]
07. Yada Yada - Fingalikkin' Good    [4:38]
08. Shakatak - Toot the Shoot    [4:18]
09. Swing Machine - Soul Is What's Happening    [6:43]
10. Gota - Give It A Try    [4:58]

<spoiler title="Лог создания рипа"><pre>
Exact Audio Copy V1.0 beta 4 from 7. December 2014
EAC extraction logfile from 28. August 2016, 8:36
Various Artists / Steppin' Out (This is Acid Jazz Volume 7)
Used drive : TSSTcorpCDDVDW SH-224DB Adapter: 1 ID: 0
Read mode : Secure
Utilize accurate stream : Yes
Defeat audio cache : Yes
Make use of C2 pointers : No
Read offset correction : 6
Overread into Lead-In and Lead-Out : No
Fill up missing offset samples with silence : Yes
Delete leading and trailing silent blocks : No
Null samples used in CRC calculations : Yes
Used interface : Native Win32 interface for Win NT & 2000
Gap handling : Appended to previous track
Used output format : User Defined Encoder
Selected bitrate : 896 kBit/s
Quality : High
Add ID3 tag : No
Command line compressor : C:\Program Files\Exact Audio Copy\Flac\flac.exe
Additional command line options : -6 -V -T "ARTIST=%artist%" -T "TITLE=%title%" -T "ALBUM=%albumtitle%" -T "DATE=%year%" -T "TRACKNUMBER=%tracknr%" -T "GENRE=%genre%" -T "COMMENT=%comment%" %source% -o %dest%
TOC of the extracted CD Track | Start | Length | Start sector | End sector --------------------------------------------------------- 1 | 0:00.00 | 4:48.19 | 0 | 21618 2 | 4:48.19 | 4:16.11 | 21619 | 40829 3 | 9:04.30 | 5:00.71 | 40830 | 63400 4 | 14:05.26 | 4:52.25 | 63401 | 85325 5 | 18:57.51 | 5:01.12 | 85326 | 107912 6 | 23:58.63 | 5:39.48 | 107913 | 133385 7 | 29:38.36 | 4:38.13 | 133386 | 154248 8 | 34:16.49 | 4:18.12 | 154249 | 173610 9 | 38:34.61 | 6:43.49 | 173611 | 203884 10 | 45:18.35 | 4:58.55 | 203885 | 226289
Track 1 Filename C:\New Folder\01 - Sharpshooters - Funk Shack West.wav Pre-gap length 0:00:02.00 Peak level 84.1 % Extraction speed 1.8 X Track quality 100.0 % Test CRC FA35BC86 Copy CRC FA35BC86 Accurately ripped (confidence 2) [C625A38B] (AR v2) Copy OK
Track 2 Filename C:\New Folder\02 - The JB Horns - I Like it Like That.wav Pre-gap length 0:00:03.00 Peak level 98.1 % Extraction speed 2.0 X Track quality 100.0 % Test CRC 26460324 Copy CRC 26460324 Accurately ripped (confidence 2) [3E10E5E5] (AR v2) Copy OK
Track 3 Filename C:\New Folder\03 - The Chris Bangs Project - Play To Win.wav Pre-gap length 0:00:03.00 Peak level 99.9 % Extraction speed 2.2 X Track quality 100.0 % Test CRC 2BE1A94B Copy CRC 2BE1A94B Accurately ripped (confidence 2) [EBE3065D] (AR v2) Copy OK
Track 4 Filename C:\New Folder\04 - Woody Cunningham - Tonite.wav Pre-gap length 0:00:03.00 Peak level 98.8 % Extraction speed 2.4 X Track quality 100.0 % Test CRC 6EF43661 Copy CRC 6EF43661 Accurately ripped (confidence 2) [5C9B084E] (AR v2) Copy OK
Track 5 Filename C:\New Folder\05 - Soundscape UK - Space Girls.wav Pre-gap length 0:00:03.00 Peak level 99.4 % Extraction speed 2.6 X Track quality 100.0 % Test CRC 74175028 Copy CRC 74175028 Accurately ripped (confidence 2) [F6C197F5] (AR v2) Copy OK
Track 6 Filename C:\New Folder\06 - CFM Band - Make It Funky CFM.wav Pre-gap length 0:00:03.00 Peak level 98.7 % Extraction speed 2.5 X Track quality 99.9 % Test CRC 46C78C55 Copy CRC 46C78C55 Accurately ripped (confidence 2) [BABD1ED3] (AR v2) Copy OK
Track 7 Filename C:\New Folder\07 - Yada Yada - Fingalikkin' Good.wav Pre-gap length 0:00:03.00 Peak level 99.9 % Extraction speed 2.9 X Track quality 100.0 % Test CRC 3A7FC554 Copy CRC 3A7FC554 Accurately ripped (confidence 2) [18B9D02A] (AR v2) Copy OK
Track 8 Filename C:\New Folder\08 - Shakatak - Toot the Shoot.wav Pre-gap length 0:00:03.00 Peak level 97.8 % Extraction speed 3.0 X Track quality 100.0 % Test CRC 7FD8EC11 Copy CRC 7FD8EC11 Accurately ripped (confidence 2) [66BA0CA9] (AR v2) Copy OK
Track 9 Filename C:\New Folder\09 - Swing Machine - Soul Is What's Happening.wav Pre-gap length 0:00:03.00 Peak level 99.0 % Extraction speed 3.3 X Track quality 100.0 % Test CRC D9B3E761 Copy CRC D9B3E761 Accurately ripped (confidence 2) [64963EA9] (AR v2) Copy OK
Track 10 Filename C:\New Folder\10 - Gota - Give It A Try.wav Pre-gap length 0:00:03.00 Peak level 88.6 % Extraction speed 3.4 X Track quality 100.0 % Test CRC BC7E2701 Copy CRC BC7E2701 Accurately ripped (confidence 2) [9E53C63E] (AR v2) Copy OK
All tracks accurately ripped
No errors occurred
End of status report
---- CUETools DB Plugin V2.1.4
[CTDB TOCID: 0OP7FRuDq9NDvo7xHNGaKCIcvfo-] found
Submit result: 0OP7FRuDq9NDvo7xHNGaKCIcvfo- has been confirmed
Track | CTDB Status 1 | (1/1) Accurately ripped 2 | (1/1) Accurately ripped 3 | (1/1) Accurately ripped 4 | (1/1) Accurately ripped 5 | (1/1) Accurately ripped 6 | (1/1) Accurately ripped 7 | (1/1) Accurately ripped 8 | (1/1) Accurately ripped 9 | (1/1) Accurately ripped 10 | (1/1) Accurately ripped
==== Log checksum 327121ABBCA95A7D00AF8DC0C5513F95076C1DCB2F100A51DDE6B4CBACF0C35C ====
<spoiler title="Содержание индексной карты (.CUE)"><pre>
REM GENRE "Acid Jazz"
REM DATE 2000
REM DISCID 7C0BC90A
REM COMMENT "ExactAudioCopy v1.0b4"
PERFORMER "Various Artists"
TITLE "Steppin' Out (This is Acid Jazz Volume 7)"
FILE "01 - Sharpshooters - Funk Shack West.wav" WAVE TRACK 01 AUDIO TITLE "Funk Shack West" PERFORMER "Sharpshooters" FLAGS DCP INDEX 01 00:00:00 TRACK 02 AUDIO TITLE "I Like it Like That" PERFORMER "The JB Horns" FLAGS DCP INDEX 00 04:45:19
FILE "02 - The JB Horns - I Like it Like That.wav" WAVE INDEX 01 00:00:00 TRACK 03 AUDIO TITLE "Play To Win" PERFORMER "The Chris Bangs Project" FLAGS DCP INDEX 00 04:13:11
FILE "03 - The Chris Bangs Project - Play To Win.wav" WAVE INDEX 01 00:00:00 TRACK 04 AUDIO TITLE "Tonite" PERFORMER "Woody Cunningham" FLAGS DCP INDEX 00 04:57:71
FILE "04 - Woody Cunningham - Tonite.wav" WAVE INDEX 01 00:00:00 TRACK 05 AUDIO TITLE "Space Girls" PERFORMER "Soundscape UK" FLAGS DCP INDEX 00 04:49:25
FILE "05 - Soundscape UK - Space Girls.wav" WAVE INDEX 01 00:00:00 TRACK 06 AUDIO TITLE "Make It Funky CFM" PERFORMER "CFM Band" FLAGS DCP INDEX 00 04:58:12
FILE "06 - CFM Band - Make It Funky CFM.wav" WAVE INDEX 01 00:00:00 TRACK 07 AUDIO TITLE "Fingalikkin' Good" PERFORMER "Yada Yada" FLAGS DCP INDEX 00 05:36:48
FILE "07 - Yada Yada - Fingalikkin' Good.wav" WAVE INDEX 01 00:00:00 TRACK 08 AUDIO TITLE "Toot the Shoot" PERFORMER "Shakatak" FLAGS DCP INDEX 00 04:35:13
FILE "08 - Shakatak - Toot the Shoot.wav" WAVE INDEX 01 00:00:00 TRACK 09 AUDIO TITLE "Soul Is What's Happening" PERFORMER "Swing Machine" FLAGS DCP INDEX 00 04:15:12
FILE "09 - Swing Machine - Soul Is What's Happening.wav" WAVE INDEX 01 00:00:00 TRACK 10 AUDIO TITLE "Give It A Try" PERFORMER "Gota" FLAGS DCP INDEX 00 06:40:49
FILE "10 - Gota - Give It A Try.wav" WAVE INDEX 01 00:00:00
Приватный Нет (DHT включён)
Хэш 0AD3DA4B6F6D1A59BC431EABCF3CB0C708531AE2
Размер 376.39 Мб (394,677,069 байт) » файлов: 19 [ Список файлов ]
Участники 0 раздают, 0 качают (0 участников всего)
Внешние участники Нет внешних трекеров
Скорость Сейчас никто не качает
22:17
16
RSS
Нет комментариев. Ваш будет первым!