2000 Joey DeFrancesco - Incredible! {Concord CCD 4890-2}

2000 Joey DeFrancesco - Incredible! {Concord CCD 4890-2}
Страна-производитель диска (релиза):
USA
Дата издания диска:
27 июня 2000
Номер по каталогу:
CCD 4890-2
Носитель:
CD
Битрейт аудио:
lossless
Аудиокодек:
FLAC (*.flac)
Тип рипа:
image+.cue
Время звучания:
01:06:21
Наличие сканов:
  • да
Релизёр (источник):
Гость
Треклист:

01. The Champ 13:02
02. When You're Smilin' 7:16
03. The Good Life 8:36
04. Back Home Again in Indiana 10:55
05. Medley #1 15:12
- The Reverend
- Yesterdays
- My Romance
06. Medley #2 11:20
- The Skeezer
- St. Thomas

Состав:
  • Paul Bollenback Guitar
  • John Burk Producer
  • Joey DeFrancesco Organ, Organ (H/artists//artists//artists//artists//artists/amm-88.html">AMM
  • -88.html">AMM
-88.html">AMM-88.html">AMM-88.html">AMM-88.html">AMM-88.html">AMM-88.html">AMM-88.html">AMM-88.html">AMMond) Phil Edwards Engineer Dave Fischer Keyboards, Organ, Photography Byron Landham Cymbals, Drums Nick Phillips Producer Jimmy Smith Composer, Organ Phil Upchurch Guitar Frank Wilson Drums
Отчёт EAC об извлечении, выполненном 14. мая 2007, 23:29 для диска:
Joey DeFrancesco and Jimmy Smith / Incredible!
Дисковод: ASUS DRW-1608P3S Adapter: 0 ID: 0
Режим чтения: Достоверный (C2: нет, Точный поток: да, Отключение кэша: да)
Коррекция смещения при чтении: 48
Способность читать области Lead-in и Lead-out : Да
Выходной формат: Внутренние WAV-операции 44.100 Гц; 16 бит; стерео
Другие параметры: Заполнение пропущенных сэмплов тишиной : Да Удаление блоков с тишиной в начале и конце : Нет Установленный внешний ASPI-интерфейс
Характеристики диапазона извлечения и сообщения об ошибках
Выбранный диапазон Имя файла F:\wav\Joey DeFrancesco and Jimmy Smith - Incredible!.wav Пиковый уровень 96.6 % Качество диапазона 100.0 % CRC 795BBFBB Копирование... OK
Ошибок не произошло
Конец отчёта
REM GENRE Jazz
REM DATE 2000
REM DISCID 4A0F9006
REM COMMENT "ExactAudioCopy v0.95b4"
PERFORMER "Joey DeFrancesco and Jimmy Smith"
TITLE "Incredible!"
FILE "Joey DeFrancesco and Jimmy Smith - Incredible!.flac" WAVE TRACK 01 AUDIO TITLE "The Champ" PERFORMER "Joey DeFrancesco and Jimmy Smith" INDEX 01 00:00:00 TRACK 02 AUDIO TITLE "When You're Smiling" PERFORMER "Joey DeFrancesco and Jimmy Smith" INDEX 01 13:02:58 TRACK 03 AUDIO TITLE "The Good Life" PERFORMER "Joey DeFrancesco and Jimmy Smith" INDEX 01 20:19:04 TRACK 04 AUDIO TITLE "Back Home Again In Indiana" PERFORMER "Joey DeFrancesco and Jimmy Smith" INDEX 01 28:55:59 TRACK 05 AUDIO TITLE "Medley #1" PERFORMER "Joey DeFrancesco and Jimmy Smith" INDEX 01 39:51:27 TRACK 06 AUDIO TITLE "Medley #2" PERFORMER "Joey DeFrancesco and Jimmy Smith" INDEX 01 55:04:13
<spoiler title="CUETools log">[CUETools log; Date: 18.03.2011 15:35:52; Version: 2.1.1]
[CTDB TOCID: yG_ZxFdjiOtFm40KdxRN8geESrc-] disk not present in database.
[AccurateRip ID: 000f5b00-005236fc-4a0f9006] found.
Track [ CRC ] Status 01 [f8e63053] (0/6) No match 02 [83714317] (0/6) No match 03 [a8566b7f] (0/6) No match 04 [46e3a4be] (0/5) No match 05 [2d0faed8] (0/6) No match 06 [70b821fd] (0/5) No match
Offsetted by 66: 01 [6d390ac9] (6/6) Accurately ripped 02 [e38b5d06] (6/6) Accurately ripped 03 [75de456a] (6/6) Accurately ripped 04 [613bda74] (5/5) Accurately ripped 05 [b35b5e20] (6/6) Accurately ripped 06 [2379b08c] (5/5) Accurately ripped
Track Peak [ CRC32 ] [W/O NULL] -- 96,6 [795BBFBB] [21B4684C] 01 96,6 [111EA349] [31D21759] 02 96,6 [AD36CDD5] [D9F56F47] 03 96,6 [631EFED0] [C0E7BFEE] 04 96,6 [93CFCF8B] [8D8EB19E] 05 96,6 [4BFDAC7D] [A4CC460D] 06 96,6 [A51DD00B] [596776A6]</spoiler>
Приватный Нет (DHT включён)
Хэш 52B2E49809C8AD79AEE1AE953E8F953484B71A93
Размер 436.53 Мб (457,730,161 байт) » файлов: 7 [ Список файлов ]
Участники 0 раздают, 0 качают (0 участников всего)
Внешние участники 5 раздают, 1 качают (6 участников всего)
Скорость Сейчас никто не качает
13:23
52
RSS
Нет комментариев. Ваш будет первым!