2000 Joe Lovano, Jim Hall, George Mraz, Lewis Nash - Grand Slam

2000 Joe Lovano, Jim Hall, George Mraz, Lewis Nash - Grand Slam
Дата записи диска:
20-22 января 2000
Номер по каталогу:
CD-83485
Носитель:
CD
Битрейт аудио:
lossless
Аудиокодек:
FLAC (*.flac)
Тип рипа:
tracks+.cue
Время звучания:
01:00:11
Наличие сканов:
  • нет
Релизёр (источник):
Inochka
Треклист:

01. Slam (12:27)
02. Chelsea Rendezvous (7:02)
03. Border Crossing (6:25)
04. Say Hello To Calypso (6:47)
05. Blackwell's Message (11:06)
06. All Across The City (9:47)
07. Feel Free (6:37)

Состав:
  • Joe Lovano — Tenor, Soprano, Alto Sax, Alto Clarinet
  • Jim Hall — Guitar
  • George Mraz — Bass
  • Lewis Nash — Drums

Recorded at the Regattabar, The Charles Hotel, Cambridge, Massachusetts; January 20-22, 2000
<spoiler title="Лог создания рипа"><pre>Exact Audio Copy V0.99 prebeta 1 from 25. May 2007
Отчёт EAC об извлечении, выполненном 19. июня 2009, 12:46
Jim Hall, Joe Lovano, George Mraz, Lewis Nash / Grand Slam
Дисковод: ASUS DRW-20B1LT Adapter: 1 ID: 1
Режим чтения : Достоверность
Использование точного потока : Да
Отключение кэша аудио : Да
Использование указателей C2 : Нет
Коррекция смещения при чтении : 6
Способность читать области Lead-in и Lead-out : Нет
Заполнение пропущенных сэмплов тишиной : Да
Удаление блоков с тишиной в начале и конце : Нет
Интерфейс : Встроенный Win32-интерфейс для Win NT/2000
Обработка зазоров : Добавлено к предыдущему треку
Выходной формат : Пользовательский кодировщик
Выбранный битрейт : 1024 kBit/s
Качество : Высокий
Добавление ID3-тэга : Да
Утилита сжатия : C:\Program Files\Exact Audio Copy\Flac\flac.exe
Дополнительные параметры : -8 -V -T "artist=%a" -T "title=%t" -T "album=%g" -T "date=%y" -T "tracknumber=%n" -T "genre=%m" -T "comment=Innochka" %s
TOC извлечённого CD
Трек | Старт | Длительность | Начальный сектор | Конечный сектор
---------------------------------------------------------------------
1 | 0:02.00 | 12:29.30 | 150 | 56354
2 | 12:31.30 | 7:04.07 | 56355 | 88161
3 | 19:35.37 | 6:27.40 | 88162 | 117226
4 | 26:03.02 | 6:49.25 | 117227 | 147926
5 | 32:52.27 | 11:08.13 | 147927 | 198039
6 | 44:00.40 | 9:49.72 | 198040 | 242286
7 | 53:50.37 | 6:37.08 | 242287 | 272069
Трек 1
Имя файла E:\1Jazz\Joe Lovano\Grand Slam\01. Slam.wav
Длина предзазора 0:00:04.00
Пиковый уровень 100.0 %
Качество трека 100.0 %
CRC теста CA1AF87C
CRC копии CA1AF87C
Копирование... OK
Трек 2
Имя файла E:\1Jazz\Joe Lovano\Grand Slam\02. Chelsea Rendezvous.wav
Длина предзазора 0:00:02.00
Пиковый уровень 100.0 %
Качество трека 100.0 %
CRC теста 3E1861A2
CRC копии 3E1861A2
Копирование... OK
Трек 3
Имя файла E:\1Jazz\Joe Lovano\Grand Slam\03. Border Crossing.wav
Длина предзазора 0:00:02.00
Пиковый уровень 81.5 %
Качество трека 99.9 %
CRC теста 7F32D653
CRC копии 7F32D653
Копирование... OK
Трек 4
Имя файла E:\1Jazz\Joe Lovano\Grand Slam\04. Say Hello To Calypso.wav
Длина предзазора 0:00:02.00
Пиковый уровень 100.0 %
Качество трека 100.0 %
CRC теста 2A4442F9
CRC копии 2A4442F9
Копирование... OK
Трек 5
Имя файла E:\1Jazz\Joe Lovano\Grand Slam\05. Blackwell's Message.wav
Длина предзазора 0:00:02.00
Пиковый уровень 93.7 %
Качество трека 100.0 %
CRC теста 9C163150
CRC копии 9C163150
Копирование... OK
Трек 6
Имя файла E:\1Jazz\Joe Lovano\Grand Slam\06. All Across The City.wav
Длина предзазора 0:00:02.00
Пиковый уровень 58.9 %
Качество трека 100.0 %
CRC теста FC82FC39
CRC копии FC82FC39
Копирование... OK
Трек 7
Имя файла E:\1Jazz\Joe Lovano\Grand Slam\07. Feel Free.wav
Длина предзазора 0:00:02.00
Пиковый уровень 100.0 %
Качество трека 100.0 %
CRC теста BEEB26E3
CRC копии BEEB26E3
Копирование... OK
Ошибок не произошло
Конец отчёта
Приватный Нет (DHT включён)
Хэш 544B18103865DD9A9BB269E825A27E5EA9B602A7
Размер 296.97 Мб (311,393,575 байт) » файлов: 9 [ Список файлов ]
Участники 0 раздают, 0 качают (0 участников всего)
Внешние участники 2 раздают, 1 качают (3 участников всего)
Скорость Сейчас никто не качает
13:13
23
RSS
Нет комментариев. Ваш будет первым!