Поиск

2000 Eddie Allen Quintet - Summer Days {Enja ENJ-93882}

2000 Eddie Allen Quintet - Summer Days {Enja ENJ-93882}
Стили:
Страна-производитель диска (релиза):
USA
Дата записи диска:
26-27 июля 1999
Дата издания диска:
24 октября 2000
Издатель (лейбл):
Номер по каталогу:
ENJ-93882
Носитель:
CD
Битрейт аудио:
lossless
Аудиокодек:
FLAC (*.flac)
Тип рипа:
tracks+.cue
Время звучания:
62:43
Наличие сканов:
  • нет
Релизёр (источник):
smacito (what)

Треклист:

01. Eye of the Hurricane (Hancock) - 3:56
02. You Were Never Lovelier (Allen) - 7:27
03. You Say (Allen) - 6:14
04. Summer Days (Allen) - 7:46
05. Always (Allen) - 11:01
06. Stablemates (Golson) - 8:07
07. Inner Glimpse (Tyner) - 5:58
08. Mystic Dreams (Gordon) - 1:09
09. The Crusade (Allen) - 8:17
10. Later (Allen) - 2:48

Состав:
  • Eddie Allen Composer, Trumpet
  • David Baker Engineer
  • Cindy Blackman Drums
  • Dan Faulk Sax (Soprano), Sax (Tenor)
  • Richie Goods Bass
  • Steve Turre Trombone
  • Matthias Winckelmann Producer
  • Anthony Wonsey Piano

Записано в Systems Two Studios, Brooklyn, New York.

Лог создания рипа
Exact Audio Copy V1.0 beta 3 from 29. August 2011

EAC extraction logfile from 28. December 2013, 0:58

Eddie Allen Quintet / Summer Days

Used drive  : HL-DT-STDVDRAM GT30N   Adapter: 0  ID: 1

Read mode               : Secure
Utilize accurate stream : Yes
Defeat audio cache      : Yes
Make use of C2 pointers : No

Read offset correction                      : 103
Overread into Lead-In and Lead-Out          : No
Fill up missing offset samples with silence : Yes
Delete leading and trailing silent blocks   : No
Null samples used in CRC calculations       : Yes
Used interface                              : Native Win32 interface for Win NT & 2000
Gap handling                                : Appended to previous track

Used output format              : User Defined Encoder
Selected bitrate                : 1024 kBit/s
Quality                         : High
Add ID3 tag                     : No
Command line compressor         : C:\Program Files (x86)\Exact Audio Copy\Flac\flac.exe
Additional command line options : -8 -V -T "ARTIST=%artist%" -T "TITLE=%title%" -T "ALBUM=%albumtitle%" -T "DATE=%year%" -T "TRACKNUMBER=%tracknr%" -T "GENRE=%genre%" -T "PERFORMER=%albuminterpret%" -T "COMPOSER=%composer%" %haslyrics%--tag-from-file=LYRICS="%lyricsfile%"%haslyrics% -T "ALBUMARTIST=%albumartist%" -T "DISCNUMBER=%cdnumber%" -T "TOTALDISCS=%totalcds%" -T "TOTALTRACKS=%numtracks%" -T "COMMENT=%comment%" %source% -o %dest%

TOC of the extracted CD

     Track |   Start  |  Length  | Start sector | End sector
    ---------------------------------------------------------
        1  |  0:00.00 |  3:56.14 |         0    |    17713
        2  |  3:56.14 |  7:27.24 |     17714    |    51262
        3  | 11:23.38 |  6:13.69 |     51263    |    79306
        4  | 17:37.32 |  7:46.04 |     79307    |   114260
        5  | 25:23.36 | 11:01.25 |    114261    |   163860
        6  | 36:24.61 |  8:06.74 |    163861    |   200384
        7  | 44:31.60 |  5:58.01 |    200385    |   227235
        8  | 50:29.61 |  1:09.18 |    227236    |   232428
        9  | 51:39.04 |  8:17.05 |    232429    |   269708
       10  | 59:56.09 |  2:47.45 |    269709    |   282278

Track  1

     Filename D:\My Documents\Dropbox\My Music\What.cd project\01 - Eye of the Hurricane.wav

     Pre-gap length  0:00:02.00

     Peak level 98.8 %
     Extraction speed 1.2 X
     Track quality 100.0 %
     Test CRC 6F766F0B
     Copy CRC 6F766F0B
     Accurately ripped (confidence 2)  [8947914E]  (AR v2)
     Copy OK

Track  2

     Filename D:\My Documents\Dropbox\My Music\What.cd project\02 - You Were Never Lovelier.wav

     Pre-gap length  0:00:03.53

     Peak level 98.8 %
     Extraction speed 1.5 X
     Track quality 100.0 %
     Test CRC 02AB742F
     Copy CRC 02AB742F
     Accurately ripped (confidence 2)  [41E94EAD]  (AR v2)
     Copy OK

Track  3

     Filename D:\My Documents\Dropbox\My Music\What.cd project\03 - You Say.wav

     Pre-gap length  0:00:03.40

     Peak level 98.8 %
     Extraction speed 1.7 X
     Track quality 100.0 %
     Test CRC 34A3932B
     Copy CRC 34A3932B
     Accurately ripped (confidence 2)  [ED38B2C3]  (AR v2)
     Copy OK

Track  4

     Filename D:\My Documents\Dropbox\My Music\What.cd project\04 - Summer Days.wav

     Pre-gap length  0:00:04.86

     Peak level 98.8 %
     Extraction speed 1.9 X
     Track quality 100.0 %
     Test CRC 0AE5CD40
     Copy CRC 0AE5CD40
     Accurately ripped (confidence 2)  [C5DE91B0]  (AR v2)
     Copy OK

Track  5

     Filename D:\My Documents\Dropbox\My Music\What.cd project\05 - Always.wav

     Pre-gap length  0:00:03.08

     Peak level 98.8 %
     Extraction speed 2.1 X
     Track quality 99.9 %
     Test CRC 8FF14BC9
     Copy CRC 8FF14BC9
     Accurately ripped (confidence 2)  [86D33578]  (AR v2)
     Copy OK

Track  6

     Filename D:\My Documents\Dropbox\My Music\What.cd project\06 - Stablemates.wav

     Pre-gap length  0:00:03.22

     Peak level 98.8 %
     Extraction speed 2.4 X
     Track quality 100.0 %
     Test CRC 0FC465BD
     Copy CRC 0FC465BD
     Accurately ripped (confidence 2)  [2FFDB4A8]  (AR v2)
     Copy OK

Track  7

     Filename D:\My Documents\Dropbox\My Music\What.cd project\07 - Inner Glimpse.wav

     Pre-gap length  0:00:01.68

     Peak level 98.8 %
     Extraction speed 2.4 X
     Track quality 100.0 %
     Test CRC D1C4AED4
     Copy CRC D1C4AED4
     Accurately ripped (confidence 2)  [4296292C]  (AR v2)
     Copy OK

Track  8

     Filename D:\My Documents\Dropbox\My Music\What.cd project\08 - Mystic Dreams.wav

     Pre-gap length  0:00:00.81

     Peak level 98.8 %
     Extraction speed 1.8 X
     Track quality 100.0 %
     Test CRC FFD4C9B2
     Copy CRC FFD4C9B2
     Accurately ripped (confidence 2)  [3FF8C3D8]  (AR v2)
     Copy OK

Track  9

     Filename D:\My Documents\Dropbox\My Music\What.cd project\09 - The Crusade.wav

     Pre-gap length  0:00:02.61

     Peak level 98.8 %
     Extraction speed 2.7 X
     Track quality 100.0 %
     Test CRC 9C26F484
     Copy CRC 9C26F484
     Accurately ripped (confidence 2)  [77D27BC6]  (AR v2)
     Copy OK

Track 10

     Filename D:\My Documents\Dropbox\My Music\What.cd project\10 - Later.wav

     Pre-gap length  0:00:06.40

     Peak level 98.8 %
     Extraction speed 2.4 X
     Track quality 100.0 %
     Test CRC BCD6C236
     Copy CRC BCD6C236
     Accurately ripped (confidence 2)  [F98A435B]  (AR v2)
     Copy OK

All tracks accurately ripped

No errors occurred

End of status report

==== Log checksum F490734BB0ED778B2D80848D98513BD9E88C0A483ABFFA517DF7E26F29450A89 ====
Содержание индексной карты (.CUE)
REM GENRE Jazz
REM DATE 2000
REM DISCID 860EB30A
REM COMMENT "ExactAudioCopy v1.0b3"
PERFORMER "Eddie Allen"
TITLE "Summer Days"
FILE "01 - Eye of the Hurricane.wav" WAVE
  TRACK 01 AUDIO
    TITLE "Eye of the Hurricane"
    PERFORMER "Eddie Allen"
    ISRC DEA590008801
    INDEX 01 00:00:00
  TRACK 02 AUDIO
    TITLE "You Were Never Lovelier"
    PERFORMER "Eddie Allen"
    ISRC DEA590008802
    INDEX 00 03:52:49
FILE "02 - You Were Never Lovelier.wav" WAVE
    INDEX 01 00:00:00
  TRACK 03 AUDIO
    TITLE "You Say"
    PERFORMER "Eddie Allen"
    ISRC DEA590008803
    INDEX 00 07:23:69
FILE "03 - You Say.wav" WAVE
    INDEX 01 00:00:00
  TRACK 04 AUDIO
    TITLE "Summer Days"
    PERFORMER "Eddie Allen"
    ISRC DEA590008804
    INDEX 00 06:09:04
FILE "04 - Summer Days.wav" WAVE
    INDEX 01 00:00:00
  TRACK 05 AUDIO
    TITLE "Always"
    PERFORMER "Eddie Allen"
    ISRC DEA590008805
    INDEX 00 07:42:73
FILE "05 - Always.wav" WAVE
    INDEX 01 00:00:00
  TRACK 06 AUDIO
    TITLE "Stablemates"
    PERFORMER "Eddie Allen"
    ISRC DEA590008806
    INDEX 00 10:58:08
FILE "06 - Stablemates.wav" WAVE
    INDEX 01 00:00:00
  TRACK 07 AUDIO
    TITLE "Inner Glimpse"
    PERFORMER "Eddie Allen"
    ISRC DEA590008807
    INDEX 00 08:05:23
FILE "07 - Inner Glimpse.wav" WAVE
    INDEX 01 00:00:00
  TRACK 08 AUDIO
    TITLE "Mystic Dreams"
    PERFORMER "Eddie Allen"
    ISRC DEA590008808
    INDEX 00 05:57:15
FILE "08 - Mystic Dreams.wav" WAVE
    INDEX 01 00:00:00
  TRACK 09 AUDIO
    TITLE "The Crusade"
    PERFORMER "Eddie Allen"
    ISRC DEA590008809
    INDEX 00 01:06:47
FILE "09 - The Crusade.wav" WAVE
    INDEX 01 00:00:00
  TRACK 10 AUDIO
    TITLE "Later"
    PERFORMER "Eddie Allen"
    ISRC DEA590008810
    INDEX 00 08:10:50
FILE "10 - Later.wav" WAVE
    INDEX 01 00:00:00
Лог проверки качества
[CUETools log; Date: 05.06.2014 21:54:49; Version: 2.1.4]
[CTDB TOCID: W6qXYFA2HCrbUGvNFNPOI2RT8jc-] found.
Track | CTDB Status
  1   | (1/1) Accurately ripped
  2   | (1/1) Accurately ripped
  3   | (1/1) Accurately ripped
  4   | (1/1) Accurately ripped
  5   | (1/1) Accurately ripped
  6   | (1/1) Accurately ripped
  7   | (1/1) Accurately ripped
  8   | (1/1) Accurately ripped
  9   | (1/1) Accurately ripped
 10   | (1/1) Accurately ripped
[AccurateRip ID: 0019002c-00c90ae0-860eb30a] found.
Track   [  CRC   |   V2   ] Status
 01     [58779d1a|8947914e] (0+2/2) Accurately ripped
 02     [31dae4db|41e94ead] (0+2/2) Accurately ripped
 03     [e27d5db4|ed38b2c3] (0+2/2) Accurately ripped
 04     [894921d0|c5de91b0] (0+2/2) Accurately ripped
 05     [5d37cff3|86d33578] (0+2/2) Accurately ripped
 06     [66abaa0a|2ffdb4a8] (0+2/2) Accurately ripped
 07     [eb64c7d9|4296292c] (0+2/2) Accurately ripped
 08     [130724e7|3ff8c3d8] (0+2/2) Accurately ripped
 09     [d2c281ad|77d27bc6] (0+2/2) Accurately ripped
 10     [3e1ef944|f98a435b] (0+2/2) Accurately ripped

Track Peak [ CRC32  ] [W/O NULL] [  LOG   ]
 --   98,8 [CC9DC11B] [F56A08BF]
 01   98,8 [6F766F0B] [63970648]   CRC32
 02   98,8 [02AB742F] [0C4268C2]   CRC32
 03   98,8 [34A3932B] [D340856A]   CRC32
 04   98,8 [0AE5CD40] [54EADD0A]   CRC32
 05   98,8 [8FF14BC9] [64BE82EB]   CRC32
 06   98,8 [0FC465BD] [366C807C]   CRC32
 07   98,8 [D1C4AED4] [8BFF04CF]   CRC32
 08   98,8 [FFD4C9B2] [E25160E7]   CRC32
 09   98,8 [9C26F484] [0101549F]   CRC32
 10   98,8 [BCD6C236] [D871547F]   CRC32
Приватный:
Нет (DHT включён)
Размер:
383.66 Мб (402,298,529 байт) » файлов: 16
Участники:
0 раздают, 0 качают (0 участников всего)
Внешние участники:
Нет внешних трекеров [ Обновить ]
17:20
47
RSS
Нет комментариев. Ваш будет первым!