Поиск

1999 Charly Antolini - Knock Out 2000 {in-akustik INAK 9053 CD}

1999 Charly Antolini - Knock Out 2000 {in-akustik INAK 9053 CD}
Страна-производитель диска (релиза):
Germany
Дата издания диска:
1999
Издатель (лейбл):
Номер по каталогу:
INAK 9053 CD
Носитель:
CD
Битрейт аудио:
lossless
Аудиокодек:
FLAC (*.flac)
Тип рипа:
tracks+.cue
Время звучания:
58:21
Наличие сканов:
  • нет
Релизёр (источник):
shavenne

Треклист:

01. Sticks to Me (Antolini) - 5:25
02. Cha Cha Bonita (Antolini) - 3:10
03. Get Down! (Schmid-Grandy) - 2:21
04. B4C (Antolini) - 2:21
05. Arabian Desert Groove (Schmid-Grandy) - 2:46
06. Jungle Train (Antolini) - 4:57
07. Tandoorini's Nirvana (Schmid-Grandy) - 1:34
08. Duwadjuwanadu (Antolini) - 10:22
09. Ayers Rock (Schmid-Grandy) - 2:53
10. Jammin' (Antolini/Schmid-Grandy) - 3:39
11. Simple's the Best (Schmid-Grandy) - 3:55
12. Godzilla's Birthday (Schmid-Grandy) - 3:18
13. Take Ten (Desmond) - 3:02
14. Afrolini (Antolini) - 2:38
15. Big Bam Boo (Antolini) - 3:03
16. Another Three, Please (Antolini) - 2:57

Состав:
  • Charly Antolini Drums
  • Jürgen Koppers Engineer, Mixing
  • Nippy Noya Percussion
  • Wolfgang Schmid  Bass

Записано в 

  • Jk's Mastermix, Unterföhring (Germany).
Exact Audio Copy V1.0 beta 3 from 29. August 2011EAC extraction logfile from 15. June 2013, 10:57Charly Antolini / Knock Out 2000Used drive: TSSTcorpCDDVDW SH-222AL Adapter: 2 ID: 0Read mode: SecureUtilize accurate stream: YesDefeat audio cache: YesMake use of C2 pointers: NoRead offset correction: 6Overread into Lead-In and Lead-Out: NoFill up missing offset samples with silence: YesDelete leading and trailing silent blocks: NoNull samples used in CRC calculations: YesUsed interface: Native Win32 interface for Win NT & 2000Gap handling: Appended to previous trackUsed output format: User Defined EncoderSelected bitrate: 1024 kBit/sQuality: HighAdd ID3 tag: NoCommand line compressor: C:\Program Files (x86)\Exact Audio Copy\FLAC\FLAC.EXEAdditional command line options: -8 -V -T «ARTIST=%artist%» -T «TITLE=%title%» -T «ALBUM=%albumtitle%» -T «DATE=%year%» -T «TRACKNUMBER=%tracknr%» -T «GENRE=%genre%» -T «PERFORMER=%albuminterpret%» -T «COMPOSER=%composer%» %haslyrics%--tag-from-file=LYRICS="%lyricsfile%"%haslyrics% -T «ALBUMARTIST=%albumartist%» -T «DISCNUMBER=%cdnumber%» -T «TOTALDISCS=%totalcds%» -T «TOTALTRACKS=%numtracks%» -T «COMMENT=%comment%» %source% -o %dest%TOC of the extracted CD Track | Start | Length | Start sector | End sector — 1 | 0:00.00 | 5:25.00 | 0 | 24374 2 | 5:25.00 | 3:10.12 | 24375 | 38636 3 | 8:35.12 | 2:20.65 | 38637 | 49201 4 | 10:56.02 | 2:20.70 | 49202 | 59771 5 | 13:16.72 | 2:46.28 | 59772 | 72249 6 | 16:03.25 | 4:56.62 | 72250 | 94511 7 | 21:00.12 | 1:34.10 | 94512 | 101571 8 | 22:34.22 | 10:22.03 | 101572 | 148224 9 | 32:56.25 | 2:53.25 | 148225 | 161224 10 | 35:49.50 | 3:38.47 | 161225 | 177621 11 | 39:28.22 | 3:54.60 | 177622 | 195231 12 | 43:23.07 | 3:17.65 | 195232 | 210071 13 | 46:40.72 | 3:02.03 | 210072 | 223724 14 | 49:43.00 | 2:38.17 | 223725 | 235591 15 | 52:21.17 | 3:02.68 | 235592 | 249309 16 | 55:24.10 | 2:57.25 | 249310 | 262609Track 1 Filename Z:\Musik\Charly Antolini\1999 — Knock Out 2000 [FLAC]\01 — Sticks to me.wav Pre-gap length 0:00:02.00 Peak level 97.1 % Extraction speed 3.0 X Track quality 99.9 % Test CRC 29B8BBE7 Copy CRC 29B8BBE7 Accurately ripped (confidence 3) [107799BB] (AR v2) Copy OKTrack 2 Filename Z:\Musik\Charly Antolini\1999 — Knock Out 2000 [FLAC]\02 — Cha cha bonita.wav Peak level 96.8 % Extraction speed 3.7 X Track quality 100.0 % Test CRC 7B27B941 Copy CRC 7B27B941 Accurately ripped (confidence 2) [FD2B23C6] (AR v2) Copy OKTrack 3 Filename Z:\Musik\Charly Antolini\1999 — Knock Out 2000 [FLAC]\03 — Get down!.wav Peak level 96.9 % Extraction speed 3.7 X Track quality 100.0 % Test CRC 3161F197 Copy CRC 3161F197 Accurately ripped (confidence 2) [C8BC9053] (AR v2) Copy OKTrack 4 Filename Z:\Musik\Charly Antolini\1999 — Knock Out 2000 [FLAC]\04 — B4C.wav Peak level 96.9 % Extraction speed 3.8 X Track quality 100.0 % Test CRC B3E6780F Copy CRC B3E6780F Accurately ripped (confidence 3) [6FCAB0F2] (AR v2) Copy OKTrack 5 Filename Z:\Musik\Charly Antolini\1999 — Knock Out 2000 [FLAC]\05 — Arabian desert groove.wav Peak level 96.8 % Extraction speed 4.1 X Track quality 100.0 % Test CRC 64EF6E46 Copy CRC 64EF6E46 Accurately ripped (confidence 3) [4B26FD85] (AR v2) Copy OKTrack 6 Filename Z:\Musik\Charly Antolini\1999 — Knock Out 2000 [FLAC]\06 — Jungle train.wav Pre-gap length 0:00:00.45 Peak level 96.9 % Extraction speed 4.0 X Track quality 99.9 % Test CRC 0FE90179 Copy CRC 0FE90179 Accurately ripped (confidence 3) [3B6F4505] (AR v2) Copy OKTrack 7 Filename Z:\Musik\Charly Antolini\1999 — Knock Out 2000 [FLAC]\07 — Tandoorini's nirvana.wav Peak level 96.8 % Extraction speed 4.0 X Track quality 100.0 % Test CRC 7B5A25A3 Copy CRC 7B5A25A3 Accurately ripped (confidence 3) [C3B630D6] (AR v2) Copy OKTrack 8 Filename Z:\Musik\Charly Antolini\1999 — Knock Out 2000 [FLAC]\08 — Duwadjuwanadu.wav Peak level 96.8 % Extraction speed 5.7 X Track quality 100.0 % Test CRC 42454F1D Copy CRC 42454F1D Accurately ripped (confidence 2) [1BA80027] (AR v2) Copy OKTrack 9 Filename Z:\Musik\Charly Antolini\1999 — Knock Out 2000 [FLAC]\09 — Ayers Rock.wav Peak level 96.9 % Extraction speed 5.3 X Track quality 100.0 % Test CRC C71F1F71 Copy CRC C71F1F71 Accurately ripped (confidence 2) [A8C74CEE] (AR v2) Copy OKTrack 10 Filename Z:\Musik\Charly Antolini\1999 — Knock Out 2000 [FLAC]\10 — Jammin'.wav Peak level 96.9 % Extraction speed 5.7 X Track quality 100.0 % Test CRC 290F2737 Copy CRC 290F2737 Accurately ripped (confidence 2) [DC3FAE96] (AR v2) Copy OKTrack 11 Filename Z:\Musik\Charly Antolini\1999 — Knock Out 2000 [FLAC]\11 — Simple's the best.wav Peak level 96.9 % Extraction speed 5.9 X Track quality 100.0 % Test CRC 13174C8C Copy CRC 13174C8C Accurately ripped (confidence 3) [FDCCABEA] (AR v2) Copy OKTrack 12 Filename Z:\Musik\Charly Antolini\1999 — Knock Out 2000 [FLAC]\12 — Godzilla's birthday.wav Peak level 96.8 % Extraction speed 4.6 X Track quality 99.9 % Test CRC 4D24AE12 Copy CRC 4D24AE12 Accurately ripped (confidence 2) [16FB35FB] (AR v2) Copy OKTrack 13 Filename Z:\Musik\Charly Antolini\1999 — Knock Out 2000 [FLAC]\13 — Take ten.wav Peak level 96.9 % Extraction speed 6.0 X Track quality 100.0 % Test CRC 643DDBD4 Copy CRC 643DDBD4 Accurately ripped (confidence 2) [CF980CD2] (AR v2) Copy OKTrack 14 Filename Z:\Musik\Charly Antolini\1999 — Knock Out 2000 [FLAC]\14 — Afrolini.wav Peak level 96.8 % Extraction speed 5.9 X Track quality 100.0 % Test CRC D44F00DD Copy CRC D44F00DD Accurately ripped (confidence 3) [78D4D47A] (AR v2) Copy OKTrack 15 Filename Z:\Musik\Charly Antolini\1999 — Knock Out 2000 [FLAC]\15 — Big Bam Boo.wav Peak level 96.8 % Extraction speed 4.7 X Track quality 99.9 % Test CRC C4981134 Copy CRC C4981134 Accurately ripped (confidence 3) [90449D96] (AR v2) Copy OKTrack 16 Filename Z:\Musik\Charly Antolini\1999 — Knock Out 2000 [FLAC]\16 — Another three, please.wav Peak level 96.9 % Extraction speed 6.2 X Track quality 100.0 % Test CRC 4E80A902 Copy CRC 4E80A902 Accurately ripped (confidence 3) [E6C22E3A] (AR v2) Copy OKAll tracks accurately rippedNo errors occurredEnd of status report==== Log checksum BC29C28F6CA0B0F02BBB163A40E2D91ED332355CB598AE2AC14B011DF427BD70 ====
REM GENRE Jazz
REM DATE 1999
REM DISCID EC0DAD10
REM COMMENT "ExactAudioCopy v1.0b3"
PERFORMER "Charly Antolini"
TITLE "Knock Out 2000"
FILE "01 - Sticks to Me.wav" WAVE TRACK 01 AUDIO TITLE "Sticks to Me" PERFORMER "Charly Antolini" INDEX 01 00:00:00
FILE "02 - Cha Cha Bonita.wav" WAVE TRACK 02 AUDIO TITLE "Cha Cha Bonita" PERFORMER "Charly Antolini" INDEX 01 00:00:00
FILE "03 - Get Down!.wav" WAVE TRACK 03 AUDIO TITLE "Get Down!" PERFORMER "Charly Antolini" INDEX 01 00:00:00
FILE "04 - B4C.wav" WAVE TRACK 04 AUDIO TITLE "B4C" PERFORMER "Charly Antolini" INDEX 01 00:00:00
FILE "05 - Arabian Desert Groove.wav" WAVE TRACK 05 AUDIO TITLE "Arabian Desert Groove" PERFORMER "Charly Antolini" INDEX 01 00:00:00 TRACK 06 AUDIO TITLE "Jungle Train" PERFORMER "Charly Antolini" INDEX 00 02:45:58
FILE "06 - Jungle Train.wav" WAVE INDEX 01 00:00:00
FILE "07 - Tandoorini's Nirvana.wav" WAVE TRACK 07 AUDIO TITLE "Tandoorini's Nirvana" PERFORMER "Charly Antolini" INDEX 01 00:00:00
FILE "08 - Duwadjuwanadu.wav" WAVE TRACK 08 AUDIO TITLE "Duwadjuwanadu" PERFORMER "Charly Antolini" INDEX 01 00:00:00
FILE "09 - Ayers Rock.wav" WAVE TRACK 09 AUDIO TITLE "Ayers Rock" PERFORMER "Charly Antolini" INDEX 01 00:00:00
FILE "10 - Jammin'.wav" WAVE TRACK 10 AUDIO TITLE "Jammin'" PERFORMER "Charly Antolini" INDEX 01 00:00:00
FILE "11 - Simple's the Best.wav" WAVE TRACK 11 AUDIO TITLE "Simple's the Best" PERFORMER "Charly Antolini" INDEX 01 00:00:00
FILE "12 - Godzilla's Birthday.wav" WAVE TRACK 12 AUDIO TITLE "Godzilla's Birthday" PERFORMER "Charly Antolini" INDEX 01 00:00:00
FILE "13 - Take Ten.wav" WAVE TRACK 13 AUDIO TITLE "Take Ten" PERFORMER "Charly Antolini" INDEX 01 00:00:00
FILE "14 - Afrolini.wav" WAVE TRACK 14 AUDIO TITLE "Afrolini" PERFORMER "Charly Antolini" INDEX 01 00:00:00
FILE "15 - Big Bam Boo.wav" WAVE TRACK 15 AUDIO TITLE "Big Bam Boo" PERFORMER "Charly Antolini" INDEX 01 00:00:00
FILE "16 - Another Three, Please.wav" WAVE TRACK 16 AUDIO TITLE "Another Three, Please" PERFORMER "Charly Antolini" INDEX 01 00:00:00
Отчет CUETools[CUETools log; Date: 03.12.2013 0:07:00; Version: 2.1.4][CTDB TOCID: OwINntFYqIhUes7L0AUQT4B9yls-] found.Track | CTDB Status 1 | (22/22) Accurately ripped 2 | (21/22) Accurately ripped 3 | (21/22) Accurately ripped 4 | (21/22) Accurately ripped 5 | (22/22) Accurately ripped 6 | (22/22) Accurately ripped 7 | (22/22) Accurately ripped 8 | (22/22) Accurately ripped 9 | (22/22) Accurately ripped 10 | (22/22) Accurately ripped 11 | (22/22) Accurately ripped 12 | (22/22) Accurately ripped 13 | (22/22) Accurately ripped 14 | (22/22) Accurately ripped 15 | (22/22) Accurately ripped 16 | (22/22) Accurately ripped[AccurateRip ID: 002327bd-01a61383-ec0dad10] found.Track [ CRC | V2 ] Status 01 [e6df76ef|107799bb] (000+014/102) Accurately ripped 02 [75b66970|fd2b23c6] (000+012/099) Accurately ripped 03 [6b558828|c8bc9053] (000+012/096) Accurately ripped 04 [1d9e8d24|6fcab0f2] (000+014/100) Accurately ripped 05 [66b78e48|4b26fd85] (000+013/099) Accurately ripped 06 [48b1d80c|3b6f4505] (000+014/099) Accurately ripped 07 [f45e7c49|c3b630d6] (000+013/100) Accurately ripped 08 [7e722fdf|1ba80027] (000+012/100) Accurately ripped 09 [ad10f098|a8c74cee] (000+012/097) Accurately ripped 10 [068470ef|dc3fae96] (000+012/096) Accurately ripped 11 [26e97d22|fdccabea] (000+014/102) Accurately ripped 12 [d6d0f017|16fb35fb] (000+012/098) Accurately ripped 13 [0fe0e060|cf980cd2] (000+012/098) Accurately ripped 14 [25dfee61|78d4d47a] (000+014/100) Accurately ripped 15 [1fe40a2d|90449d96] (000+014/100) Accurately ripped 16 [3eac2bf1|e6c22e3a] (000+014/102) Accurately rippedOffsetted by 10: 01 [13c6aaf5] (031/102) Accurately ripped 02 [cf589dc4] (030/099) Accurately ripped 03 [b6faef86] (031/096) Accurately ripped 04 [1c768020] (031/100) Accurately ripped 05 [a272c872] (031/099) Accurately ripped 06 [e99e0366] (030/099) Accurately ripped 07 [bb2fb057] (031/100) Accurately ripped 08 [05018953] (031/100) Accurately ripped 09 [8885b264] (030/097) Accurately ripped 10 [389a2dbf] (031/096) Accurately ripped 11 [8078fbfa] (031/102) Accurately ripped 12 [c01c6f89] (030/098) Accurately ripped 13 [db62bfea] (031/098) Accurately ripped 14 [e6e9cc0f] (031/100) Accurately ripped 15 [ec89335b] (031/100) Accurately ripped 16 [665626c5] (031/102) Accurately rippedOffsetted by 635: 01 [0a38de6c] (018/102) Accurately ripped 02 [cd5cbff9] (018/099) Accurately ripped 03 [1489893f] (016/096) Accurately ripped 04 [b2d0da28] (018/100) Accurately ripped 05 [a63b86be] (018/099) Accurately ripped 06 [63ded789] (018/099) Accurately ripped 07 [c542e5c2] (018/100) Accurately ripped 08 [df00e025] (018/100) Accurately ripped 09 [3b601d40] (018/097) Accurately ripped 10 [57619359] (016/096) Accurately ripped 11 [647c9a9e] (018/102) Accurately ripped 12 [d86de9ce] (018/098) Accurately ripped 13 [8a97d31b] (018/098) Accurately ripped 14 [07d26b0a] (018/100) Accurately ripped 15 [c301158d] (018/100) Accurately ripped 16 [cfc813d0] (018/102) Accurately rippedOffsetted by 36: 01 [bbb9656b] (002/102) Accurately ripped 02 [85318c38] (002/099) Accurately ripped 03 [4875c914] (000/096) No match (V2 was not tested) 04 [e641917c] (000/100) No match (V2 was not tested) 05 [a4265fac] (002/099) Accurately ripped 06 [259da750] (002/099) Accurately ripped 07 [f34f9e15] (002/100) Accurately ripped 08 [2fa971e7] (002/100) Accurately ripped 09 [8fe87710] (000/097) No match (V2 was not tested) 10 [879f7f0f] (000/096) No match (V2 was not tested) 11 [02ee1292] (002/102) Accurately ripped 12 [b847214b] (002/098) Accurately ripped 13 [1fb46b84] (000/098) No match (V2 was not tested) 14 [a99d0c6d] (000/100) No match (V2 was not tested) 15 [67036b39] (000/100) No match (V2 was not tested) 16 [cd767fb9] (002/102) Accurately rippedTrack Peak [ CRC32 ] [W/O NULL] [ LOG ] — 97,1 [8DBC3ABF] [64CE9B13] 01 97,1 [29B8BBE7] [78771D0D] CRC32 02 96,8 [7B27B941] [1498AD39] CRC32 03 96,9 [3161F197] [21D8BFF4] CRC32 04 96,9 [B3E6780F] [161FB836] CRC32 05 96,8 [64EF6E46] [EAF4C957] CRC32 06 96,9 [0FE90179] [E6665777] CRC32 07 96,8 [7B5A25A3] [19979CEB] CRC32 08 96,8 [42454F1D] [F1D7CAE0] CRC32 09 96,9 [C71F1F71] [22292167] CRC32 10 96,9 [290F2737] [88FFC589] CRC32 11 96,9 [13174C8C] [2A962030] CRC32 12 96,8 [4D24AE12] [84A6992A] CRC32 13 96,9 [643DDBD4] [30EE7DDB] CRC32 14 96,8 [D44F00DD] [3E695575] CRC32 15 96,8 [C4981134] [3299BBC4] CRC32 16 96,9 [4E80A902] [5CAD5249] CRC32
13:40
82
RSS
Нет комментариев. Ваш будет первым!