Поиск

1997 Oscar Peterson - Tribute - Live At The Town Hall {Telarc CD 83401}

1997 Oscar Peterson - Tribute - Live At The Town Hall {Telarc CD 83401}
Страна-производитель диска (релиза):
Canada
Дата записи диска:
1 октября 1996
Дата издания диска:
1997
Издатель (лейбл):
Номер по каталогу:
CD 83401
Носитель:
CD
Битрейт аудио:
lossless
Аудиокодек:
APE (*.ape)
Тип рипа:
image+.cue
Время звучания:
72:37
Наличие сканов:
  • да
Релизёр (источник):
alexsor
Треклист:

01. Anything Goes [05:23]
02. Reunion Blues [06:36]
03. If Only You Knew [08:08]
04. Bags Groove [07:25]
05. Willow Weep For Me [06:44]
06. Mumbles [04:15]
07. I Can't Face The Music [03:48]
08. Here's To Life [05:09]
09. In A Mellow Tone [05:23]
10. My Foolish Heart [05:26]
11. The Duke Of Dubuque [02:16]
12. (Get Your Kicks On) Route 66 [04:10]
13. Mack The Knife [07:49] 

Состав:
  • Elaine Martone — producer
  • Jack Renner — recording engineer
  • Michael Bishop — recording engineer
  • Wayne Baruch — executive producer
  • Robert Woods — executive producer
  • Oscar Peterson — piano
  • Herb Ellis — guitar
  • Ray Brown — bass
  • Lewis Nash — drums
  • Benny Green — piano
  • Milt Jackson — vibraphone
  • Clark Terry — vocals, flugelhorn, trumpet
  • Niels-Henning Ørsted Pedersen — bass
  • Shirley Horn — vocals, piano
  • Stanley Turrentine — tenor saxophone
  • Roy Hargrove — flugelhorn
  • The Manhattan Transfer — vocals
Exact Audio Copy V0.99 prebeta 3 from 28. July 2007
Отчёт EAC об извлечении, выполненном 27. декабря 2007, 14:00
Oscar Peterson (A Tribute To) / Live At The Town Hall
Дисковод: Optiarc DVD RW AD-7170S Adapter: 2 ID: 0
Режим чтения : Достоверность
Использование точного потока : Да
Отключение кэша аудио : Да
Использование указателей C2 : Нет
Коррекция смещения при чтении : 48
Способность читать области Lead-in и Lead-out : Нет
Заполнение пропущенных сэмплов тишиной : Да
Удаление блоков с тишиной в начале и конце : Нет
При вычислениях CRC использовались нулевые сэмплы : Нет
Интерфейс : Установленный внешний ASPI-интерфейс
Выходной формат : Monkey's Audio Lossless Encoder v3.99 DLL
Формат сэмплов : Normal Lossless Compression
TOC извлечённого CD
Трек | Старт | Длительность | Начальный сектор | Конечный сектор
---------------------------------------------------------------------
1 | 0:00.00 | 5:23.00 | 0 | 24224
2 | 5:23.00 | 6:36.65 | 24225 | 53989
3 | 11:59.65 | 8:08.25 | 53990 | 90614
4 | 20:08.15 | 7:25.02 | 90615 | 123991
5 | 27:33.17 | 6:44.65 | 123992 | 154356
6 | 34:18.07 | 4:15.38 | 154357 | 173519
7 | 38:33.45 | 3:48.05 | 173520 | 190624
8 | 42:21.50 | 5:09.50 | 190625 | 213849
9 | 47:31.25 | 5:23.02 | 213850 | 238076
10 | 52:54.27 | 5:26.38 | 238077 | 262564
11 | 58:20.65 | 2:16.65 | 262565 | 272829
12 | 60:37.55 | 4:10.45 | 272830 | 291624
13 | 64:48.25 | 7:49.00 | 291625 | 326799
Характеристики диапазона извлечения и сообщения об ошибках
Выбранный диапазон
Имя файла C:\EAC\Oscar Peterson (A Tribute To) - Live At The Town Hall.ape
Пиковый уровень 100.0 %
Качество диапазона 99.9 %
CRC копии 39A7FEDB
Копирование... OK
Ошибок не произошло
Конец отчёта
22:21
31
RSS
Нет комментариев. Ваш будет первым!