1997 Kenny Wheeler, Lee Konitz, Dave Holland, Bill Frisell - Angel Song {ECM 1607 533 098-2}

1997 Kenny Wheeler, Lee Konitz, Dave Holland, Bill Frisell - Angel Song {ECM 1607 533 098-2}
Страна-производитель диска (релиза):
Germany
Дата записи диска:
февраль 1996
Дата издания диска:
февраль 1997
Издатель (лейбл):
Номер по каталогу:
1607 533 098-2
Носитель:
CD
Битрейт аудио:
lossless
Аудиокодек:
FLAC (*.flac)
Тип рипа:
tracks+.cue
Время звучания:
01:09:59
Наличие сканов:
  • да
Релизёр (источник):
Inochka
Треклист:

01. Nicolette (8:36)
02. Present Past (12:08)
03. Kind Folk (8:38)
04. Unti (9:55)
05. Angel Song (7:36)
06. Onmo (5:51)
07. Nonetheless (5:29)
08. Past Present (7:05)
09. Kind Of Gentle (4:41)

Power Station, New York, NY

Состав:
  • Kenny Wheeler — Trumpet, Flugelhorn
  • Lee Konitz — Alto Saxophone
  • Dave Holland — Double-Bass
  • Bill Frisell — Electric Guitar
  • Manfred Eicher Producer
  • Jan Erik Kongshaug Engineer
<spoiler title="Лог создания рипа"><pre>
Exact Audio Copy V0.99 prebeta 1 from 25. May 2007
Отчёт EAC об извлечении, выполненном 21. декабря 2007, 2:34
Kenny Wheeler / Angel Song
Дисковод: _NEC DVD_RW ND-4570A Adapter: 1 ID: 1
Режим чтения : Достоверность
Использование точного потока : Да
Отключение кэша аудио : Да
Использование указателей C2 : Нет
Коррекция смещения при чтении : 48
Способность читать области Lead-in и Lead-out : Нет
Заполнение пропущенных сэмплов тишиной : Да
Удаление блоков с тишиной в начале и конце : Нет
Интерфейс : Установленный внешний ASPI-интерфейс
Обработка зазоров : Не обнаружено, добавлено к предыдущему треку
Выходной формат : Пользовательский кодировщик
Выбранный битрейт : 1024 kBit/s
Качество : Высокий
Добавление ID3-тэга : Да
Утилита сжатия : C:\Program Files\Exact Audio Copy\flac-1.2.0-win\bin\flac.exe
Дополнительные параметры : -8 -V -T "artist=%a" -T "title=%t" -T "album=%g" -T "date=%y" -T "tracknumber=%n" -T "genre=%m" -T "comment=Innochka" %s
TOC извлечённого CD
Трек | Старт | Длительность | Начальный сектор | Конечный сектор
---------------------------------------------------------------------
1 | 0:00.00 | 8:36.25 | 0 | 38724
2 | 8:36.25 | 12:08.37 | 38725 | 93361
3 | 20:44.62 | 8:38.38 | 93362 | 132249
4 | 29:23.25 | 9:55.62 | 132250 | 176936
5 | 39:19.12 | 7:36.58 | 176937 | 211194
6 | 46:55.70 | 5:51.65 | 211195 | 237584
7 | 52:47.60 | 5:29.02 | 237585 | 262261
8 | 58:16.62 | 7:05.13 | 262262 | 294149
9 | 65:22.00 | 4:41.64 | 294150 | 315288
Трек 1
Имя файла G:\Imidg\Новая папка\Kenny Wheeler\+Kenny Wheeler - Angel Song\01 - Nicolette.wav
Пиковый уровень 99.9 %
Качество трека 100.0 %
CRC копии 2377AC9C
Копирование... OK
Трек 2
Имя файла G:\Imidg\Новая папка\Kenny Wheeler\+Kenny Wheeler - Angel Song\02 - Present Past.wav
Пиковый уровень 100.0 %
Качество трека 100.0 %
CRC копии 71DA1EB6
Копирование... OK
Трек 3
Имя файла G:\Imidg\Новая папка\Kenny Wheeler\+Kenny Wheeler - Angel Song\03 - Kind Folk.wav
Пиковый уровень 99.9 %
Качество трека 100.0 %
CRC копии D0E5607A
Копирование... OK
Трек 4
Имя файла G:\Imidg\Новая папка\Kenny Wheeler\+Kenny Wheeler - Angel Song\04 - Unti.wav
Пиковый уровень 99.8 %
Качество трека 100.0 %
CRC копии 32500147
Копирование... OK
Трек 5
Имя файла G:\Imidg\Новая папка\Kenny Wheeler\+Kenny Wheeler - Angel Song\05 - Angel Song.wav
Пиковый уровень 97.5 %
Качество трека 100.0 %
CRC копии 6997754F
Копирование... OK
Трек 6
Имя файла G:\Imidg\Новая папка\Kenny Wheeler\+Kenny Wheeler - Angel Song\06 - Onmo.wav
Пиковый уровень 100.0 %
Качество трека 100.0 %
CRC копии 47CDE7AC
Копирование... OK
Трек 7
Имя файла G:\Imidg\Новая папка\Kenny Wheeler\+Kenny Wheeler - Angel Song\07 - Nonetheless.wav
Пиковый уровень 100.0 %
Качество трека 100.0 %
CRC копии 1D626ECD
Копирование... OK
Трек 8
Имя файла G:\Imidg\Новая папка\Kenny Wheeler\+Kenny Wheeler - Angel Song\08 - Past Present.wav
Пиковый уровень 99.9 %
Качество трека 100.0 %
CRC копии 64E05078
Копирование... OK
Трек 9
Имя файла G:\Imidg\Новая папка\Kenny Wheeler\+Kenny Wheeler - Angel Song\09 - Kind Of Gentle.wav
Пиковый уровень 84.7 %
Качество трека 100.0 %
CRC копии 5F32BA43
Копирование... OK
Ошибок не произошло
Конец отчёта
Приватный Нет (DHT включён)
Хэш C3C322F9549E34AFDB7AFF90FC7CB679F944EBCD
Размер 251.44 Мб (263,652,079 байт) » файлов: 15 [ Список файлов ]
Участники 0 раздают, 0 качают (0 участников всего)
Внешние участники 5 раздают, 1 качают (6 участников всего)
Скорость Сейчас никто не качает
03:45
26
RSS
Нет комментариев. Ваш будет первым!