Поиск

1992 Pain Killer - Buried Secrets {Relativity 1108}

1992 Pain Killer - Buried Secrets {Relativity 1108}
Страна-производитель диска (релиза):
USA
Дата записи диска:
август-октябрь 1991
Дата издания диска:
1992
Номер по каталогу:
1108
Носитель:
CD
Битрейт аудио:
lossless
Аудиокодек:
FLAC (*.flac)
Тип рипа:
image+.cue
Время звучания:
27:33
Наличие сканов:
  • да
Релизёр (источник):
cortazar

Треклист:
01. TORTURED SOULS 1:52
02. ONE-EYED PESSARY 1:50
03. TRAILMARKER 0:08
04. BLACKHOLE DUB 3:29
05. BURIED SECRETS 6:13
06. THE LADDER 0:22
07. EXECUTIONER 2:48
08. BLACK CHAMBER 2:28
09. SKINNED 0:54
10. THE TOLL 7:25
Состав:

MICK HARRIS: Drums, vocals
BILL LASWELL: Bass
JOHN ZORN: Alto sax, vocals
Justin Broadrick: Guitar, drum machine, vocals (5, 10)
G. C. Green: Bass


Recorded and mixed Aug. and Oct. 1991 by Oz Fritz at Greenpoint, Brooklyn
Assistant engineer Imad Mansour
Mastered by Howie Weinberg

Exact Audio Copy V0.99 prebeta 1 from 25. May 2007

Отчёт EAC об извлечении, выполненном 24. июля 2007, 16:39

Painkiller / Buried Secrets

Дисковод: Optiarc DVD RW AD-7173A Adapter: 0 ID: 0

Режим чтения : Достоверность
Использование точного потока : Да
Отключение кэша аудио : Да
Использование указателей C2 : Нет

Коррекция смещения при чтении : 48
Способность читать области Lead-in и Lead-out : Нет
Заполнение пропущенных сэмплов тишиной : Да
Удаление блоков с тишиной в начале и конце : Нет
Интерфейс : Встроенный Win32-интерфейс для Win NT/2000

Выходной формат : Внутренние WAV-операции
Формат сэмплов : 44.100 Гц; 16 бит; стерео

TOC извлечённого CD

Трек | Старт | Длительность | Начальный сектор | Конечный сектор
---------------------------------------------------------------------
1 | 0:00.00 | 1:54.07 | 0 | 8556
2 | 1:54.07 | 1:50.40 | 8557 | 16846
3 | 3:44.47 | 0:08.35 | 16847 | 17481
4 | 3:53.07 | 3:28.53 | 17482 | 33134
5 | 7:21.60 | 6:13.32 | 33135 | 61141
6 | 13:35.17 | 0:21.40 | 61142 | 62756
7 | 13:56.57 | 2:48.50 | 62757 | 75406
8 | 16:45.32 | 2:28.15 | 75407 | 86521
9 | 19:13.47 | 0:53.40 | 86522 | 90536
10 | 20:07.12 | 7:25.63 | 90537 | 123974

Характеристики диапазона извлечения и сообщения об ошибках

Выбранный диапазон

Имя файла F:\music\Audio HQ\John Zorn\John Zorn (1991) Painkiller - Buried Secrets [© by hellr@iser]\John Zorn (1991) Painkiller - Buried Secrets [© by hellr@iser].wav

Пиковый уровень 100.0 %
Качество диапазона 100.0 %
CRC копии 5088CEF0
Копирование... OK

Ошибок не произошло

Конец отчёта
17:01
65
RSS
Нет комментариев. Ваш будет первым!