Поиск

1991 Wynton Marsalis - Standard Time Vol.2, Intimacy Calling {Columbia 468273 2}

1991 Wynton Marsalis - Standard Time Vol.2, Intimacy Calling {Columbia 468273 2}
Дата записи диска:
сентябрь 1987 - август 1990
Дата издания диска:
1991
Номер по каталогу:
468273 2
Носитель:
CD
Битрейт аудио:
lossless
Аудиокодек:
FLAC (*.flac)
Тип рипа:
tracks+.cue
Время звучания:
70:08
Наличие сканов:
  • да
Релизёр (источник):
mironov_ad
Треклист:

01. When It's Sleepy Time Down South (Muse, Rene, Rene) 5:10
02. You Don't Know What Love Is (DePaul, Raye) 6:23
03. Indelible and Nocturnal (Marsalis) 4:11
04. I'll Remember April (DePaul, Johnston, Raye) 8:34
05. Embraceable You (Gershwin, Gershwin) 7:15
06. Crepuscule With Nellie (Monk) 3:04
07. What Is This Thing Called Love? (Porter) 6:29
08. The End of a Love Affair (Redding) 3:12
09.East of the Sun (And West of the Moon) (Bowman) 5:16
10. Lover (Hart, Rodgers) 5:05
11. Yesterdays (Harbach, Kern) 9:36
12. Bourbon Street Parade (Barbarin) 5:48

  • BMG Studio A, New York, NY
  • Sony Music Post-Production, New York, NY
Состав:
  • Wessell Anderson Sax (Alto)
  • Dr. George Butler Executive Producer
  • Stanley Crouch Liner Notes
  • Steven Epstein Producer
  • Robert Hurst Bass
  • Wynton Marsalis Composer, Trumpet
  • Herlin Riley Drums
  • Marcus Roberts Piano
  • Reginald Veal Bass
  • Jeff «Tain» Watts Drums
  • Todd Williams Sax (Tenor), Saxophone
EAC extraction logfile from 9. January 2006, 20:03 for CD
Wynton Marsalis / Standard Time Vol. 2: Intimacy Calling
Used drive : PLEXTOR DVD-ROM PX-130A Adapter: 0 ID: 2
Read mode : Secure with NO C2, accurate stream, disable cache
Read offset correction : 738
Overread into Lead-In and Lead-Out : No
Used output format : C:\Program Files\FLAC\flac.exe (User Defined Encoder)
128 kBit/s
Additional command line options : -8 -V -T "ARTIST=%a" -T "TITLE=%t" -T "ALBUM=%g" -T "DATE=%y" -T "TRACKNUMBER=%n" -T "GENRE=%m" -T "COMMENT=EAC Flac 1.1.2 -8" %s
Other options :
Fill up missing offset samples with silence : Yes
Delete leading and trailing silent blocks : No
Native Win32 interface for Win NT & 2000
Track 1
Filename C:\Rips\marsalis\01 - When It's Sleepytime Down South.wav
Pre-gap length 0:00:02.00
Peak level 97.7 %
Track quality 100.0 %
Test CRC 9EE2C871
Copy CRC 9EE2C871
Copy OK
Track 2
Filename C:\Rips\marsalis\02 - You Don't Know What Love Is.wav
Pre-gap length 0:00:00.01
Peak level 90.4 %
Track quality 100.0 %
Test CRC CA1CE2FA
Copy CRC CA1CE2FA
Copy OK
Track 3
Filename C:\Rips\marsalis\03 - Indelible And Nocturnal.wav
Pre-gap length 0:00:01.26
Peak level 87.7 %
Track quality 100.0 %
Test CRC 5548E392
Copy CRC 5548E392
Copy OK
Track 4
Filename C:\Rips\marsalis\04 - I'll Remember April.wav
Pre-gap length 0:00:00.02
Peak level 97.7 %
Track quality 100.0 %
Test CRC 43D4F297
Copy CRC 43D4F297
Copy OK
Track 5
Filename C:\Rips\marsalis\05 - Embraceable You.wav
Pre-gap length 0:00:00.02
Peak level 97.7 %
Track quality 100.0 %
Test CRC C77B032C
Copy CRC C77B032C
Copy OK
Track 6
Filename C:\Rips\marsalis\06 - Crepuscle With Nellie.wav
Pre-gap length 0:00:02.01
Peak level 97.7 %
Track quality 100.0 %
Test CRC E07218D5
Copy CRC E07218D5
Copy OK
Track 7
Filename C:\Rips\marsalis\07 - What Is This Thing Called Love .wav
Pre-gap length 0:00:01.60
Peak level 97.7 %
Track quality 100.0 %
Test CRC 8FA34B29
Copy CRC 8FA34B29
Copy OK
Track 8
Filename C:\Rips\marsalis\08 - The End Of A Love Affair.wav
Pre-gap length 0:00:00.01
Peak level 87.1 %
Track quality 100.0 %
Test CRC 2250A813
Copy CRC 2250A813
Copy OK
Track 9
Filename C:\Rips\marsalis\09 - East Of The Sun (West Of The Moon).wav
Pre-gap length 0:00:00.01
Peak level 80.6 %
Track quality 100.0 %
Test CRC 011D7D51
Copy CRC 011D7D51
Copy OK
Track 10
Filename C:\Rips\marsalis\10 - Lover.wav
Pre-gap length 0:00:01.57
Peak level 95.4 %
Track quality 100.0 %
Test CRC 99FC5F76
Copy CRC 99FC5F76
Copy OK
Track 11
Filename C:\Rips\marsalis\11 - Yesterdays.wav
Pre-gap length 0:00:01.31
Peak level 97.7 %
Track quality 100.0 %
Test CRC C01AB41B
Copy CRC C01AB41B
Copy OK
Track 12
Filename C:\Rips\marsalis\12 - Bourbon Street Parade.wav
Pre-gap length 0:00:00.01
Peak level 97.7 %
Track quality 99.9 %
Test CRC 8145B1DA
Copy CRC 8145B1DA
Copy OK
No errors occured
End of status report
23:17
33
RSS
Нет комментариев. Ваш будет первым!