Поиск

1991 (2000) Chris Barber & Wendell Brunious - Panama {Timeless TTD 568}

1991 (2000) Chris Barber & Wendell Brunious - Panama {Timeless TTD 568}
Стили:
Страна-производитель диска (релиза):
USA
Дата записи диска:
12 января 1991
Дата издания диска:
1 января 2000
Издатель (лейбл):
Номер по каталогу:
TTD 568
Носитель:
CD
Битрейт аудио:
lossless
Аудиокодек:
FLAC (*.flac)
Тип рипа:
tracks+.cue
Время звучания:
58:58
Наличие сканов:
  • да
Релизёр (источник):
Musicgate
Треклист:

1. I Wish'd I Could Shimmy Like My Sister Kate - 2:56
2. Just a Little While to Stay Here - 4:32
3. Georgia on My Mind - 10:13
4. My Blue Heaven - 3:18
5. Oh! Lady Be Good - 5:03
6. Careless Love - 9:27
7. Any Time - 5:55
8. That's My Desire - 3:48
9. Panama - 13:50

Состав:
  • Wim Wigt    Producer
  • Gerald Neumann    Engineer, Mixing
  • Chris Barber    Arranger, Liner Notes, Primary Artist, Producer
  • Wendell Brunious    Primary Artist

Записано в

  • Elrond's House Ton Studio, Düsseldorf, Germany
Лог создания рипа
EAC extraction logfile from 3. December 2007, 22:10 for CD
Chris Barber & Wendell Brunious / Panama

Used drive : Optiarc DVD RW AD-5170A Adapter: 1 ID: 0
Read mode : Secure with NO C2, accurate stream, disable cache
Read offset correction : 48
Overread into Lead-In and Lead-Out : No

Used output format : D:\tools\FLAC\flac.exe (User Defined Encoder)
128 kBit/s
Additional command line options : -V -8 -T "artist=%a" -T "title=%t" -T "album=%g" -T "date=%y" -T "tracknumber=%n" -T "genre=%m" %s

Other options :
Fill up missing offset samples with silence : Yes
Delete leading and trailing silent blocks : No
Native Win32 interface for Win NT & 2000

Track 1
Filename D:\0\Chris Barber & Wendell Brunious - Panama (1991) [FLAC]\01 - I Wish I Could Shimmy Like My Sister Kate.wav

Pre-gap length 0:00:02.00

Peak level 96.6 %
Track quality 100.0 %
Test CRC 6AA47000
Copy CRC 6AA47000
Copy OK

Track 2
Filename D:\0\Chris Barber & Wendell Brunious - Panama (1991) [FLAC]\02 - Just A Little While To Stay Here.wav

Pre-gap length 0:00:00.66

Peak level 100.0 %
Track quality 100.0 %
Test CRC B5B2D322
Copy CRC B5B2D322
Copy OK

Track 3
Filename D:\0\Chris Barber & Wendell Brunious - Panama (1991) [FLAC]\03 - Georgia On My Mind.wav

Pre-gap length 0:00:01.40

Peak level 70.5 %
Track quality 100.0 %
Test CRC E97C1125
Copy CRC E97C1125
Copy OK

Track 4
Filename D:\0\Chris Barber & Wendell Brunious - Panama (1991) [FLAC]\04 - My Blue Heaven.wav

Pre-gap length 0:00:03.50

Peak level 100.0 %
Track quality 99.9 %
Test CRC 3ECC9AB9
Copy CRC 3ECC9AB9
Copy OK

Track 5
Filename D:\0\Chris Barber & Wendell Brunious - Panama (1991) [FLAC]\05 - Oh! Lady Be Good.wav

Pre-gap length 0:00:01.37

Peak level 100.0 %
Track quality 100.0 %
Test CRC 5478A4FC
Copy CRC 5478A4FC
Copy OK

Track 6
Filename D:\0\Chris Barber & Wendell Brunious - Panama (1991) [FLAC]\06 - Careless Love.wav

Pre-gap length 0:00:02.57

Peak level 63.4 %
Track quality 99.9 %
Test CRC 426A1F33
Copy CRC 426A1F33
Copy OK

Track 7
Filename D:\0\Chris Barber & Wendell Brunious - Panama (1991) [FLAC]\07 - Any Time.wav

Pre-gap length 0:00:02.09

Peak level 100.0 %
Track quality 100.0 %
Test CRC 75C970B3
Copy CRC 75C970B3
Copy OK

Track 8
Filename D:\0\Chris Barber & Wendell Brunious - Panama (1991) [FLAC]\08 - That's My Desire.wav

Pre-gap length 0:00:01.00

Peak level 51.6 %
Track quality 100.0 %
Test CRC B26927E5
Copy CRC B26927E5
Copy OK

Track 9
Filename D:\0\Chris Barber & Wendell Brunious - Panama (1991) [FLAC]\09 - Panama.wav

Pre-gap length 0:00:02.69

Peak level 84.8 %
Track quality 100.0 %
Test CRC 9D5D35B6
Copy CRC 9D5D35B6
Copy OK

No errors occured

End of status report
Лог проверки качества
90804437 31105244 01 - I Wish I Could Shimmy Like My Sister Kate.wav
3017469491 47957324 02 - Just A Little While To Stay Here.wav
2776457657 108097964 03 - Georgia On My Mind.wav
3513098109 34962524 04 - My Blue Heaven.wav
4063749674 53461004 05 - Oh! Lady Be Good.wav
1740474022 100047068 06 - Careless Love.wav
3411553125 62575004 07 - Any Time.wav
3604236123 40219244 08 - That's My Desire.wav
980745246 146482604 09 - Panama.wav

auCDtect: CD records authenticity detector, version 0.8.2
Copyright (c) 2004 Oleg Berngardt. All rights reserved.
Copyright (c) 2004 Alexander Djourik. All rights reserved.
------------------------------------------------------------
Processing file: [01 - I Wish I Could Shimmy Like My Sister Kate.wav]

------------------------------------------------------------
This track looks like CDDA with probability 99%

------------------------------------------------------------
Processing file: [02 - Just A Little While To Stay Here.wav]

------------------------------------------------------------
This track looks like CDDA with probability 100%

------------------------------------------------------------
Processing file: [03 - Georgia On My Mind.wav]

------------------------------------------------------------
This track looks like CDDA with probability 100%

------------------------------------------------------------
Processing file: [04 - My Blue Heaven.wav]

------------------------------------------------------------
This track looks like CDDA with probability 100%

------------------------------------------------------------
Processing file: [05 - Oh! Lady Be Good.wav]

------------------------------------------------------------
This track looks like CDDA with probability 100%

------------------------------------------------------------
Processing file: [06 - Careless Love.wav]

------------------------------------------------------------
This track looks like CDDA with probability 100%

------------------------------------------------------------
Processing file: [07 - Any Time.wav]

------------------------------------------------------------
This track looks like CDDA with probability 100%

------------------------------------------------------------
Processing file: [08 - That's My Desire.wav]

------------------------------------------------------------
This track looks like CDDA with probability 99%

------------------------------------------------------------
Processing file: [09 - Panama.wav]

------------------------------------------------------------
This track looks like CDDA with probability 100%

------------------------------------------------------------
Final Conclusion:
------------------------------------------------------------
These tracks looks like CDDA with probability 100%
Приватный:
Нет (DHT включён)
Размер:
293.34 Мб (307,589,207 байт) » файлов: 20
Участники:
0 раздают, 0 качают (0 участников всего)
Внешние участники:
2 раздают, 1 качают (3 участников всего) [ Обновить ]
17:15
41
RSS
Нет комментариев. Ваш будет первым!