Поиск

1986 Craig Harris and Tailgaters Tales - Shelter {Winter & Winter / PolyGram 919008}

1986 Craig Harris and Tailgaters Tales - Shelter {Winter & Winter / PolyGram 919008}
Стили:
Страна-производитель диска (релиза):
USA
Дата записи диска:
19 ноября - декабрь 1986
Дата издания диска:
1986
Номер по каталогу:
919008
Носитель:
CD
Битрейт аудио:
lossless
Аудиокодек:
FLAC (*.flac)
Тип рипа:
tracks
Время звучания:
43:18
Наличие сканов:
  • нет
Релизёр (источник):
ZedBit
Треклист:

1. Africans Unite
2. Shelter Suite:
2.1. Shelter
2.2. Subway Scenarios
2.3.Sea Of Swollen Hands
2.4.Three Hots And A Cot
2.5. Shelter (Reprise)
2.6. Bags And Rags
3. Cootie
4. Reminiscing
5. Sound Sketches

Состав:
  • Pheeroan akLaff Drums
  • Edward J. Allen Trumpet
  • David Baker Engineer
  • Don Byron Bass, Clarinet, Clarinet (Bass)
  • Anthony Cox Bass
  • Craig Harris Composer, Didjeridu, Liner Notes, Trombone
  • Adrian von Ripka Mastering Engineer
  • Tunde Samuel Vocals
  • Rod Williams Piano
  • Stefan Winter Producer

Записано в Sound Ideas, NY

Craig Harris прославился благодаря участию в безчисленных проектах David Murray и Henry Threadgill. Там его тромбон всегда задавал тон.
В сольной же карьере, он двинул несколько в другом направлении.
Данный альбом изначально вышел на JMT Stefan F. Winter (1986), а потом был переиздан в серии 81 на его же Winter&Winter (2001)

Лог создания рипа
Exact Audio Copy V0.99 prebeta 3 from 28. July 2007
EAC extraction logfile from 13. February 2008, 23:45
Craig Harris and Tailgaters Tales / Shelter
Used drive : HL-DT-STDVDRAM GSA-4165B Adapter: 1 ID: 0
Read mode : Secure
Utilize accurate stream : Yes
Defeat audio cache : Yes
Make use of C2 pointers : No
Read offset correction : 667
Overread into Lead-In and Lead-Out : No
Fill up missing offset samples with silence : Yes
Delete leading and trailing silent blocks : No
Null samples used in CRC calculations : No
Used interface : Native Win32 interface for Win NT & 2000
Gap handling : Not detected, thus appended to previous track
Used output format : User Defined Encoder
Selected bitrate : 768 kBit/s
Quality : High
Add ID3 tag : No
Command line compressor : C:\Program Files\Exact Audio Copy\FLAC\FLAC.EXE
Additional command line options : -6 -V -T "ARTIST=%a" -T "TITLE=%t" -T "ALBUM=%g" -T "DATE=%y" -T "TRACKNUMBER=%n" -T "GENRE=%m" -T "COMMENT=%e" %s -o %d
TOC of the extracted CD
Track | Start | Length | Start sector | End sector
---------------------------------------------------------
1 | 0:00.00 | 4:42.37 | 0 | 21186
2 | 4:42.37 | 17:26.25 | 21187 | 99661
3 | 22:08.62 | 7:12.10 | 99662 | 132071
4 | 29:20.72 | 4:56.13 | 132072 | 154284
5 | 34:17.10 | 9:00.30 | 154285 | 194814
Track 1
Filename C:\Family_Folder\Torrent\0_My_Music\Craig Harris and Tailgaters Tales - Shelter (1986) - Bones#3\Craig Harris and Tailgaters Tales-01Africans Unite.wav
Peak level 98.0 %
Track quality 100.0 %
Copy CRC 5FD72EEF
Track not present in AccurateRip database
Copy OK
Track 2
Filename C:\Family_Folder\Torrent\0_My_Music\Craig Harris and Tailgaters Tales - Shelter (1986) - Bones#3\Craig Harris and Tailgaters Tales-02Shelter Suite.wav
Peak level 98.0 %
Track quality 99.9 %
Copy CRC 1C525766
Track not present in AccurateRip database
Copy OK
Track 3
Filename C:\Family_Folder\Torrent\0_My_Music\Craig Harris and Tailgaters Tales - Shelter (1986) - Bones#3\Craig Harris and Tailgaters Tales-03Cootie.wav
Peak level 98.0 %
Track quality 100.0 %
Copy CRC 095C1A02
Track not present in AccurateRip database
Copy OK
Track 4
Filename C:\Family_Folder\Torrent\0_My_Music\Craig Harris and Tailgaters Tales - Shelter (1986) - Bones#3\Craig Harris and Tailgaters Tales-04Reminiscing.wav
Peak level 98.0 %
Track quality 99.9 %
Copy CRC 3DAF1B2D
Track not present in AccurateRip database
Copy OK
Track 5
Filename C:\Family_Folder\Torrent\0_My_Music\Craig Harris and Tailgaters Tales - Shelter (1986) - Bones#3\Craig Harris and Tailgaters Tales-05Sound Sketches.wav
Peak level 98.0 %
Track quality 100.0 %
Copy CRC E1713BF2
Track not present in AccurateRip database
Copy OK
None of the tracks are present in the AccurateRip database
No errors occurred
End of status report
Приватный:
Нет (DHT включён)
Размер:
258.12 Мб (270,654,163 байт) » файлов: 10
Участники:
0 раздают, 0 качают (0 участников всего)
Внешние участники:
2 раздают, 1 качают (3 участников всего) [ Обновить ]
02:30
83
RSS
Нет комментариев. Ваш будет первым!