Поиск

1980 (1991) Monty Alexander - Facets

1980 (1991) Monty Alexander - Facets
Страна-производитель диска (релиза):
Germany
Дата записи диска:
август 1979
Дата издания диска:
1980
Дата переиздания диска:
1991
Номер по каталогу:
CCD 4108
Носитель:
CD
Битрейт аудио:
lossless
Аудиокодек:
FLAC (*.flac)
Тип рипа:
image+.cue
Время звучания:
51:48
Наличие сканов:
  • web
Релизёр (источник):
M0p94ok
Треклист:

01. When Johnny Comes Marching Home 6:10
02. Lost April 5:53
03. I'm Walkin' 4:09
04. Hard Times 5:22
05. Hold 'Em Joe 4:16
06. Consider 5:15
07. Speak Low 6:21
08. Tune Up 3:47
09. Blues For Dewey 5:49
10. To The Ends Of The Earth 4:46
 

Состав:
  • Monty Alexander Composer, Piano
  • Ray Brown Bass
  • Phil Edwards Engineer
  • Jeff Hamilton Drums
  • Carl Jefferson Producer
  • Gordon Raddue Liner Notes
Лог создания рипа
Exact Audio Copy V1.1 from 23. June 2015
Отчёт EAC об извлечении, выполненном 3. июня 2017, 14:40
Monty Alexander / Facets
Дисковод: HL-DT-STBD-RE BE12LU30 Adapter: 1 ID: 1
Режим чтения : Достоверность
Использование точного потока : Да
Отключение кэша аудио : Да
Использование указателей C2 : Нет
Коррекция смещения при чтении : 667
Способность читать области Lead-in и Lead-out : Нет
Заполнение пропущенных сэмплов тишиной : Да
Удаление блоков с тишиной в начале и конце : Нет
При вычислениях CRC использовались нулевые сэмплы : Да
Интерфейс : Встроенный Win32-интерфейс для Win NT/2000
Обработка зазоров : Добавлено к предыдущему треку
Выходной формат : Пользовательский кодировщик
Выбранный битрейт : 896 kBit/s
Качество : Высокий
Добавление ID3-тега : Нет
Утилита сжатия : C:\Program Files (x86)\Exact Audio Copy\Flac\flac.exe
Дополнительные параметры : -V -8 -T "Genre=%genre%" -T "Artist=%artist%" -T "Title=%title%" -T "Album=%albumtitle%" -T "Date=%year%" -T "Tracknumber=%tracknr%" -T "Comment=%comment%" %source%
TOC извлечённого CD Трек | Старт | Длительность | Начальный сектор | Конечный сектор --------------------------------------------------------------------- 1 | 0:00.00 | 6:09.55 | 0 | 27729 2 | 6:09.55 | 5:53.35 | 27730 | 54239 3 | 12:03.15 | 4:09.10 | 54240 | 72924 4 | 16:12.25 | 5:22.03 | 72925 | 97077 5 | 21:34.28 | 4:16.30 | 97078 | 116307 6 | 25:50.58 | 5:15.25 | 116308 | 139957 7 | 31:06.08 | 6:20.50 | 139958 | 168507 8 | 37:26.58 | 3:47.37 | 168508 | 185569 9 | 41:14.20 | 5:49.03 | 185570 | 211747 10 | 47:03.23 | 4:45.48 | 211748 | 233170
Трек 1 Имя файла D:\Music\1980 Monty Alexander - Facets\01. Monty Alexander - When Johnny Comes Marching Home.wav Длина предзазора 0:00:02.00 Пиковый уровень 98.8 % Скорость извлечения 1.3 X Качество трека 100.0 % CRC теста 75EE9226 CRC копии 75EE9226 Трек не обнаружен в базе AccurateRip Копирование... OK
Трек 2 Имя файла D:\Music\1980 Monty Alexander - Facets\02. Monty Alexander - Lost April.wav Пиковый уровень 74.7 % Скорость извлечения 1.5 X Качество трека 100.0 % CRC теста 85E2BE7D CRC копии 85E2BE7D Трек не обнаружен в базе AccurateRip Копирование... OK
Трек 3 Имя файла D:\Music\1980 Monty Alexander - Facets\03. Monty Alexander - I'm Walkin'.wav Пиковый уровень 98.6 % Скорость извлечения 1.5 X Качество трека 100.0 % CRC теста F4BCC9FB CRC копии F4BCC9FB Трек не обнаружен в базе AccurateRip Копирование... OK
Трек 4 Имя файла D:\Music\1980 Monty Alexander - Facets\04. Monty Alexander - Hard Times.wav Пиковый уровень 98.8 % Скорость извлечения 1.6 X Качество трека 99.9 % CRC теста 12D33062 CRC копии 12D33062 Трек не обнаружен в базе AccurateRip Копирование... OK
Трек 5 Имя файла D:\Music\1980 Monty Alexander - Facets\05. Monty Alexander - Hold 'Em Joe.wav Пиковый уровень 98.6 % Скорость извлечения 1.8 X Качество трека 100.0 % CRC теста 8106A770 CRC копии 8106A770 Трек не обнаружен в базе AccurateRip Копирование... OK
Трек 6 Имя файла D:\Music\1980 Monty Alexander - Facets\06. Monty Alexander - Consider.wav Пиковый уровень 85.6 % Скорость извлечения 1.9 X Качество трека 100.0 % CRC теста 44125E5A CRC копии 44125E5A Трек не обнаружен в базе AccurateRip Копирование... OK
Трек 7 Имя файла D:\Music\1980 Monty Alexander - Facets\07. Monty Alexander - Speak Low.wav Пиковый уровень 98.8 % Скорость извлечения 2.1 X Качество трека 100.0 % CRC теста 5315CB57 CRC копии 5315CB57 Трек не обнаружен в базе AccurateRip Копирование... OK
Трек 8 Имя файла D:\Music\1980 Monty Alexander - Facets\08. Monty Alexander - Tune Up.wav Пиковый уровень 98.4 % Скорость извлечения 2.0 X Качество трека 100.0 % CRC теста 31EFE8DE CRC копии 31EFE8DE Трек не обнаружен в базе AccurateRip Копирование... OK
Трек 9 Имя файла D:\Music\1980 Monty Alexander - Facets\09. Monty Alexander - Blues For Dewey.wav Пиковый уровень 99.5 % Скорость извлечения 2.2 X Качество трека 100.0 % CRC теста A2144448 CRC копии A2144448 Трек не обнаружен в базе AccurateRip Копирование... OK
Трек 10 Имя файла D:\Music\1980 Monty Alexander - Facets\10. Monty Alexander - To The Ends Of The Earth.wav Пиковый уровень 98.8 % Скорость извлечения 2.3 X Качество трека 100.0 % CRC теста 40F2313C CRC копии 40F2313C Трек не обнаружен в базе AccurateRip Копирование... OK
Ни одного трека нет в базе AccurateRip
Ошибок не произошло
Конец отчёта
---- CUETools DB Plugin V2.1.6
[CTDB TOCID: .2__KYnNsVof1biKyNL5KfcVeQg-] disk not present in database
Submit result: .2__KYnNsVof1biKyNL5KfcVeQg- has been uploaded
==== Контрольная сумма отчёта 2ECB7CEA2F2232C7B3F80EF188DA210DEF3A1D9C7168190ADBEF4262109054DF ====
Содержание индексной карты (.CUE)
REM GENRE Jazz
REM DATE 1980
REM DISCID 990C240A
REM COMMENT "ExactAudioCopy v1.1"
PERFORMER "Monty Alexander"
TITLE "Facets"
FILE "01. Monty Alexander - When Johnny Comes Marching Home.wav" WAVE TRACK 01 AUDIO TITLE "When Johnny Comes Marching Home" PERFORMER "Monty Alexander" INDEX 01 00:00:00
FILE "02. Monty Alexander - Lost April.wav" WAVE TRACK 02 AUDIO TITLE "Lost April" PERFORMER "Monty Alexander" INDEX 01 00:00:00
FILE "03. Monty Alexander - I'm Walkin'.wav" WAVE TRACK 03 AUDIO TITLE "I'm Walkin'" PERFORMER "Monty Alexander" INDEX 01 00:00:00
FILE "04. Monty Alexander - Hard Times.wav" WAVE TRACK 04 AUDIO TITLE "Hard Times" PERFORMER "Monty Alexander" INDEX 01 00:00:00
FILE "05. Monty Alexander - Hold 'Em Joe.wav" WAVE TRACK 05 AUDIO TITLE "Hold 'Em Joe" PERFORMER "Monty Alexander" INDEX 01 00:00:00
FILE "06. Monty Alexander - Consider.wav" WAVE TRACK 06 AUDIO TITLE "Consider" PERFORMER "Monty Alexander" INDEX 01 00:00:00
FILE "07. Monty Alexander - Speak Low.wav" WAVE TRACK 07 AUDIO TITLE "Speak Low" PERFORMER "Monty Alexander" INDEX 01 00:00:00
FILE "08. Monty Alexander - Tune Up.wav" WAVE TRACK 08 AUDIO TITLE "Tune Up" PERFORMER "Monty Alexander" INDEX 01 00:00:00
FILE "09. Monty Alexander - Blues For Dewey.wav" WAVE TRACK 09 AUDIO TITLE "Blues For Dewey" PERFORMER "Monty Alexander" INDEX 01 00:00:00
FILE "10. Monty Alexander - To The Ends Of The Earth.wav" WAVE TRACK 10 AUDIO TITLE "To The Ends Of The Earth" PERFORMER "Monty Alexander" INDEX 01 00:00:00
Приватный:
Нет (DHT включён)
Размер:
274.35 Мб (287,676,337 байт) » файлов: 21
Участники:
0 раздают, 0 качают (0 участников всего)
Внешние участники:
Нет внешних трекеров [ Обновить ]
Скорость:
Торрент не зарегистрирован на трекере
16:00
54
RSS
Нет комментариев. Ваш будет первым!